Subcategories

Serge Gainsbourg - L'Essentiel Des Albums Studio 1958-1987 (2011) {Mercury 277 162-7 - 14 Albums On 12 CDs}

Posted By: ruskaval
Serge Gainsbourg - L'Essentiel Des Albums Studio 1958-1987 (2011) {Mercury 277 162-7 - 14 Albums On 12 CDs}

Serge Gainsbourg - L'Essentiel Des Albums Studio 1958-1987 (2011) {Mercury 277 162-7 - 14 Albums On 12 CDs}
EAC rip (secure mode) | FLAC (tracks)+CUE+LOG -> 2.40 Gb | MP3 @320 -> 958 Mb
Full Artwork @ 300 dpi (png) -> 176 Mb | 5% repair rar
© 1958-87, 2011 Mercury / Universal Music France | 277 162-7
Pop / International / Chanson / French Pop / French Rock / Western European Traditions / Cabaret

Being familiar with some of his work (basically the hit songs) I had no idea of the legacy this brilliant man has left behind. To my complete surprise this (ridiculously low priced) box set opened a new musical world before my ears and from the very first listening I have felt madly and hopelessly in love with Serge Gainsbourg's music. The quality of these recordings is matched by the quality of sound. The remastering is top notch and superior to most digital transfers heard today. I only wish this incredible set had been released on vinyl as well.
Serge Gainsbourg - L'Essentiel Des Albums Studio 1958-1987 (2011) {Mercury 277 162-7 - 14 Albums On 12 CDs}

Serge Gainsbourg - L'Essentiel Des Albums Studio 1958-1987 (2011) {Mercury 277 162-7 - 14 Albums On 12 CDs}


A box of 14 classic Serge Gainsbourg albums on 12 CDs (the first two have two albums each) in cardboard sleeves. Contains a 16-page booklet……

Track Listing

CD1: Du Chant A La Une ! (1958)

1. Le Poinonneur Des Lilas (The Conductor Of Lilas)
2. La Recette De L'Amour Fou (The Recipe For Crazy Love)
3. Douze Belles Dans La Peau (Twelve Beauties In The Skin)
4. Ce Mortel Ennui (This Deadly Boredom)
5. Ronsard 58
6. La Femme Des Uns Sous Le Corps Des Autres (The Wife Of One Under The Body Of Another)
7. L' Alcool
8. Du Jazz Dans Le Ravin (Jazz In The Ravine)
9. Charleston Des Déménageurs De Piano (The Piano Mover's Charleston)
No. 2 (1959)
10. Le Claqueur De Doigts (The Snaps Of Fingers )
12. La Nuit D'Octobre (The October Night)
13. Adieu, Créature
14. L' Anthracite (Charcoal Grey)
15. Mambo Miam Miam (Mambo Yummy)
16. Indiffrénte
17. Jeunes Femmes Et Vieux Messieurs (Young Women And Old Men)
18. L' Amour À La Papa (Lukewarm Love)

Serge Gainsbourg - L'Essentiel Des Albums Studio 1958-1987 (2011) {Mercury 277 162-7 - 14 Albums On 12 CDs}

Serge Gainsbourg - L'Essentiel Des Albums Studio 1958-1987 (2011) {Mercury 277 162-7 - 14 Albums On 12 CDs}


CD2: L'Etonnant Serge Gainsbourg (1963)
1. La Chanson De Prévert
2. En Relisant Ta Lettre (On Re-Reading Your letter)
3. Le Rock De Nerval
4. Les Oubliettes (The Forgotten)
5. Chanson De Maglia
6. Viva Villa
7. Les Amours Perdues (Lost Loves)
8. Les Femmes C'est Du Chinois (Women, It's All Chinese To Me)
9. Personne
10. Le Sonnet D'Arvers
No. 4 (1964)
11. Les Goémons (The Seaweed)
12. Black Trombone
13. Baudelaire
14. Intoxicated Man
15. Quand Tu T'Y Mets (When You Go For It)
16. Les Cigarillos
17. Requiem Pour Un Twisteur (Requiem For A Twist Dancer)
18. Ce Grand Mechant Vous (This Big Bad You)

CD3: Gainsbourg Percussions (1964)
1. Joanna
2. Là-Bas C'est Naturel (It's Natural Over There)
3. Pauvre Lola (Poor Lola)
4. Quand Mon 6.35 Me Fait Les Yeux Doux (When My 6.35 Makes Eyes At Me)
5. Machins Choses (What's His Name)
6. Les Sambassadeurs
7. New York-U.S.A.
8. Couleur Café (Coffee Color)
9. Marabout (End Of The Rope)
10. Ces Petits Riens (These Little Nothings)
11. Tatoue Jérémie (Tattooed Jeremy)
12. Coco and Co

CD4: Initials B.B (1968)
1. Initials B.B.
2. Comic Strip
3. Bloody Jack
4. Docteur Jekyll Et Monsieur Hyde
5. Torrey Canyon
6. Shu Ba du Ba Loo Ba
7. Ford Mustang
8. Bonnie and Clyde
9. Black and White
10. Qui Est "In" Qui Est "Out" (Who's "In" Who's "Out")
11. Hold-Up
12. Marilu

CD5: Jane Birkin/Serge Gainsbourg (1969)
1. Je T'Aime… Moi Non Plus (I Love You… Neither Do I)
2. L' Anamour (The Non-Love)
3. Orang Outang
4. Sous Le Soleil Exactement (Precisely Under The Sun)
5. 18-39
6. 69 Anne Érotique (69 Erotic Year)
7. Jane B
8. Lisa
9. Le Canari Est Sur Le Balcon
10. Les Sucettes (The Lollipops)
11. Manon

Serge Gainsbourg - L'Essentiel Des Albums Studio 1958-1987 (2011) {Mercury 277 162-7 - 14 Albums On 12 CDs}


CD6: Historie De Melody Nelson (1971)
1. Melody
2. Ballade De Melody Nelson
3. Valse De Melody
4. Ah! Melody
5. L' Hotel Particulier
6. En Melody
7. Cargo Culte

Serge Gainsbourg - L'Essentiel Des Albums Studio 1958-1987 (2011) {Mercury 277 162-7 - 14 Albums On 12 CDs}


CD7: Vu De L'Exterieur (1973)
1. Je Suis Venu Te Dire Que Je M'En Vais
2. Vu De L'Extérieur
3. Panpan Cucul
4. Par Hasard Et Pas Rase
5. Des Vents Des Pets Des Poums
6. Titicaca
7. Pamela Popo
8. La Poupée Qui Fait
9. L' Hippopodame
10. Sensuelle Et Sans Suite

CD8: L'Homme À Tete de Chou (1976)
1. L'Homme À Tête De Chou
2. Chez Max Coiffeur Pour Hommes
3. Marilou Reggae
4. Transit À Marilou
5. Flash Forward
6. Aéroplanes
7. Premiers Symptômes
8. Ma Lou Marilou
9. Variations Sur Marilou
10. Meurtre À L'Extincteur
11. Marilou Sous La Neige
12. Lunatic Asylum

Serge Gainsbourg - L'Essentiel Des Albums Studio 1958-1987 (2011) {Mercury 277 162-7 - 14 Albums On 12 CDs}

Serge Gainsbourg - L'Essentiel Des Albums Studio 1958-1987 (2011) {Mercury 277 162-7 - 14 Albums On 12 CDs}


CD9: Aux Armes Et Caetera (1979)
1. Javanaise Remake
2. Aux Armes Et Caetera
3. Les Locataires
4. Des Laids Des Laids
5. Brigade Des Stups
6. Vieile Canaille (You Rascal You)
7. Lola Rastaquouere
8. Relax Baby Be Cool
9. Daisy Temple
10. Eau Et Gaz À Tous Les Étages
11. Pas Long Feu
12. Marilou Reggae Dub

CD10: Mauvaises Nouvelles Des Etoiles (1981)
1. Overseas Telegram
2. Ecce Homo
3. Mickey Maousse
4. Juif Et Dieu
5. Shush Sush Charlotte
6. Toi Mourir
7. La Nostalgie Camarade
8. Bana Basadi Balalo
9. Evguénie Sokolov
10. Negusa Nagast
11. Strike
12. Bad News From The Stars

Serge Gainsbourg - L'Essentiel Des Albums Studio 1958-1987 (2011) {Mercury 277 162-7 - 14 Albums On 12 CDs}


CD11: Love on the Beat (1984)
1. Love On The Beat
2. Sorry Angel
3. Hmm Hmm Hmm
4. Kiss Me Hardy
5. No Comment
6. I'm The Boy
7. Harley David Son Of A Bitch
8. Lemon Incest

CD12: You're Under Arrest (1987)
1. You're Under Arrest
2. Five Easy Pisseuses
3. Baille Baille Samantha
4. Suck Baby Suck
5. Gloomy Sunday
6. Aux Enfants De La Chance
7. Shotgun
8. Glass Security
9. Dispatch Box
10. Mon Légionnaire

Serge Gainsbourg - L'Essentiel Des Albums Studio 1958-1987 (2011) {Mercury 277 162-7 - 14 Albums On 12 CDs}


Exact Audio Copy V1.0 beta 3 from 29. August 2011

EAC extraction logfile from 28. August 2015, 13:32

Serge Gainsbourg / Du Chant A La Une

Used drive : ATAPI iHBS212 2 Adapter: 3 ID: 0

Read mode : Secure
Utilize accurate stream : Yes
Defeat audio cache : Yes
Make use of C2 pointers : No

Read offset correction : 6
Overread into Lead-In and Lead-Out : No
Fill up missing offset samples with silence : Yes
Delete leading and trailing silent blocks : No
Null samples used in CRC calculations : Yes
Used interface : Native Win32 interface for Win NT & 2000
Gap handling : Appended to previous track

Used output format : User Defined Encoder
Selected bitrate : 128 kBit/s
Quality : High
Add ID3 tag : No
Command line compressor : C:\Program Files (x86)\Exact Audio Copy\Flac\flac.exe
Additional command line options : -8 -V -T "ARTIST=%artist%" -T "TITLE=%title%" -T "ALBUM=%albumtitle%" -T "DATE=%year%" -T "TRACKNUMBER=%tracknr%" -T "TOTALTRACKS=%numtracks%" -T "GENRE=%genre%" -T "ALBUMARTIST=%albumartist%" -T "ALBUM ARTIST=%albumartist%" -T "COMMENT=EAC Secure Mode, Test & Copy, AccurateRip, FLAC -8" %source%


TOC of the extracted CD

Track | Start | Length | Start sector | End sector
––––––––––––––––––––––––––––-
1 | 0:00.00 | 2:44.30 | 0 | 12329
2 | 2:44.30 | 1:57.62 | 12330 | 21166
3 | 4:42.17 | 1:55.50 | 21167 | 29841
4 | 6:37.67 | 2:55.70 | 29842 | 43036
5 | 9:33.62 | 1:53.38 | 43037 | 51549
6 | 11:27.25 | 3:01.35 | 51550 | 65159
7 | 14:28.60 | 3:59.45 | 65160 | 83129
8 | 18:28.30 | 2:11.55 | 83130 | 93009
9 | 20:40.10 | 2:25.68 | 93010 | 103952
10 | 23:06.03 | 3:07.32 | 103953 | 118009
11 | 26:13.35 | 3:05.40 | 118010 | 131924
12 | 29:19.00 | 2:11.33 | 131925 | 141782
13 | 31:30.33 | 2:32.32 | 141783 | 153214
14 | 34:02.65 | 2:35.20 | 153215 | 164859
15 | 36:38.10 | 2:17.30 | 164860 | 175164
16 | 38:55.40 | 2:04.45 | 175165 | 184509
17 | 41:00.10 | 2:48.04 | 184510 | 197113


Track 1

Filename C:\Users\Rob\Desktop\Uploads\Serge Gainsbourg - L'Essentiel Des Albums Studio 1958-1987 (2011) [FLAC] (14 Albums On 12 CDs)\1958 - Du Chant A La Une\01 - Le Poinponneur Des Lilas.wav

Pre-gap length 0:00:02.00

Peak level 98.6 %
Extraction speed 5.1 X
Track quality 100.0 %
Test CRC 5EFF214E
Copy CRC 5EFF214E
Cannot be verified as accurate (confidence 5) [0FCB9F74], AccurateRip returned [AF7DA911] (AR v2)
Copy OK

Track 2

Filename C:\Users\Rob\Desktop\Uploads\Serge Gainsbourg - L'Essentiel Des Albums Studio 1958-1987 (2011) [FLAC] (14 Albums On 12 CDs)\1958 - Du Chant A La Une\02 - La Recette De L'amour Fou.wav

Pre-gap length 0:00:02.38

Peak level 93.1 %
Extraction speed 3.6 X
Track quality 99.9 %
Test CRC 744F4AAC
Copy CRC 744F4AAC
Cannot be verified as accurate (confidence 5) [5E243F09], AccurateRip returned [439920D8] (AR v2)
Copy OK

Track 3

Filename C:\Users\Rob\Desktop\Uploads\Serge Gainsbourg - L'Essentiel Des Albums Studio 1958-1987 (2011) [FLAC] (14 Albums On 12 CDs)\1958 - Du Chant A La Une\03 - Douze Belles Dans La Peau.wav

Pre-gap length 0:00:02.27

Peak level 100.0 %
Extraction speed 5.1 X
Track quality 100.0 %
Test CRC 4B9F1895
Copy CRC 4B9F1895
Cannot be verified as accurate (confidence 5) [04DD27D8], AccurateRip returned [9189AFC7] (AR v2)
Copy OK

Track 4

Filename C:\Users\Rob\Desktop\Uploads\Serge Gainsbourg - L'Essentiel Des Albums Studio 1958-1987 (2011) [FLAC] (14 Albums On 12 CDs)\1958 - Du Chant A La Une\04 - Ce Mortel Ennui.wav

Pre-gap length 0:00:02.22

Peak level 100.0 %
Extraction speed 4.8 X
Track quality 99.9 %
Test CRC 1CCE4E49
Copy CRC 1CCE4E49
Cannot be verified as accurate (confidence 5) [4B4D3A01], AccurateRip returned [BA86A441] (AR v2)
Copy OK

Track 5

Filename C:\Users\Rob\Desktop\Uploads\Serge Gainsbourg - L'Essentiel Des Albums Studio 1958-1987 (2011) [FLAC] (14 Albums On 12 CDs)\1958 - Du Chant A La Une\05 - Ronsard '58.wav

Pre-gap length 0:00:01.40

Peak level 100.0 %
Extraction speed 4.1 X
Track quality 99.9 %
Test CRC EE9E7D9F
Copy CRC EE9E7D9F
Cannot be verified as accurate (confidence 5) [6A215F5E], AccurateRip returned [DC2AE374] (AR v2)
Copy OK

Track 6

Filename C:\Users\Rob\Desktop\Uploads\Serge Gainsbourg - L'Essentiel Des Albums Studio 1958-1987 (2011) [FLAC] (14 Albums On 12 CDs)\1958 - Du Chant A La Une\06 - La Femme Des Uns Sous Le Corps Des Autres.wav

Pre-gap length 0:00:01.00

Peak level 100.0 %
Extraction speed 6.6 X
Track quality 100.0 %
Test CRC EFA8C52A
Copy CRC EFA8C52A
Cannot be verified as accurate (confidence 5) [68158ADC], AccurateRip returned [3B6C6A06] (AR v2)
Copy OK

Track 7

Filename C:\Users\Rob\Desktop\Uploads\Serge Gainsbourg - L'Essentiel Des Albums Studio 1958-1987 (2011) [FLAC] (14 Albums On 12 CDs)\1958 - Du Chant A La Une\07 - L'alcool.wav

Pre-gap length 0:00:02.28

Peak level 100.0 %
Extraction speed 7.3 X
Track quality 100.0 %
Test CRC 2E09CB15
Copy CRC 2E09CB15
Cannot be verified as accurate (confidence 5) [744B554B], AccurateRip returned [09B2C93B] (AR v2)
Copy OK

Track 8

Filename C:\Users\Rob\Desktop\Uploads\Serge Gainsbourg - L'Essentiel Des Albums Studio 1958-1987 (2011) [FLAC] (14 Albums On 12 CDs)\1958 - Du Chant A La Une\08 - Du Jazz Dans Le Ravin.wav

Pre-gap length 0:00:01.53

Peak level 100.0 %
Extraction speed 6.9 X
Track quality 100.0 %
Test CRC 51C9BB56
Copy CRC 51C9BB56
Cannot be verified as accurate (confidence 5) [DB5E3682], AccurateRip returned [B52D1C84] (AR v2)
Copy OK

Track 9

Filename C:\Users\Rob\Desktop\Uploads\Serge Gainsbourg - L'Essentiel Des Albums Studio 1958-1987 (2011) [FLAC] (14 Albums On 12 CDs)\1958 - Du Chant A La Une\09 - Charleston Des Demenageurs De Piano.wav

Pre-gap length 0:00:02.25

Peak level 94.4 %
Extraction speed 7.3 X
Track quality 100.0 %
Test CRC 1FD0228A
Copy CRC 1FD0228A
Cannot be verified as accurate (confidence 5) [ECC3F123], AccurateRip returned [4A9951A9] (AR v2)
Copy OK

Track 10

Filename C:\Users\Rob\Desktop\Uploads\Serge Gainsbourg - L'Essentiel Des Albums Studio 1958-1987 (2011) [FLAC] (14 Albums On 12 CDs)\1958 - Du Chant A La Une\10 - La Claqueur De Doigts.wav

Pre-gap length 0:00:03.33

Peak level 100.0 %
Extraction speed 7.9 X
Track quality 100.0 %
Test CRC 98B937EC
Copy CRC 98B937EC
Cannot be verified as accurate (confidence 5) [9291DC45], AccurateRip returned [74EC21C2] (AR v2)
Copy OK

Track 11

Filename C:\Users\Rob\Desktop\Uploads\Serge Gainsbourg - L'Essentiel Des Albums Studio 1958-1987 (2011) [FLAC] (14 Albums On 12 CDs)\1958 - Du Chant A La Une\11 - La Nuit D'octobre.wav

Pre-gap length 0:00:02.29

Peak level 94.4 %
Extraction speed 8.2 X
Track quality 100.0 %
Test CRC CF3D5A2D
Copy CRC CF3D5A2D
Cannot be verified as accurate (confidence 5) [9C15C38E], AccurateRip returned [AD25422E] (AR v2)
Copy OK

Track 12

Filename C:\Users\Rob\Desktop\Uploads\Serge Gainsbourg - L'Essentiel Des Albums Studio 1958-1987 (2011) [FLAC] (14 Albums On 12 CDs)\1958 - Du Chant A La Une\12 - Adieu, Creature!.wav

Pre-gap length 0:00:01.29

Peak level 77.2 %
Extraction speed 5.8 X
Track quality 99.9 %
Test CRC 35BF7AED
Copy CRC 35BF7AED
Cannot be verified as accurate (confidence 5) [6B3293AA], AccurateRip returned [97242C74] (AR v2)
Copy OK

Track 13

Filename C:\Users\Rob\Desktop\Uploads\Serge Gainsbourg - L'Essentiel Des Albums Studio 1958-1987 (2011) [FLAC] (14 Albums On 12 CDs)\1958 - Du Chant A La Une\13 - L'anthracite.wav

Pre-gap length 0:00:01.72

Peak level 89.1 %
Extraction speed 8.3 X
Track quality 100.0 %
Test CRC 1E8E6740
Copy CRC 1E8E6740
Cannot be verified as accurate (confidence 5) [115BB412], AccurateRip returned [2D1EE44C] (AR v2)
Copy OK

Track 14

Filename C:\Users\Rob\Desktop\Uploads\Serge Gainsbourg - L'Essentiel Des Albums Studio 1958-1987 (2011) [FLAC] (14 Albums On 12 CDs)\1958 - Du Chant A La Une\14 - Mambo Miam Miam.wav

Pre-gap length 0:00:02.41

Peak level 79.4 %
Extraction speed 8.5 X
Track quality 100.0 %
Test CRC FFD5853C
Copy CRC FFD5853C
Cannot be verified as accurate (confidence 5) [62DDB7EF], AccurateRip returned [6CE15E6C] (AR v2)
Copy OK

Track 15

Filename C:\Users\Rob\Desktop\Uploads\Serge Gainsbourg - L'Essentiel Des Albums Studio 1958-1987 (2011) [FLAC] (14 Albums On 12 CDs)\1958 - Du Chant A La Une\15 - Indifferente.wav

Pre-gap length 0:00:02.44

Peak level 91.7 %
Extraction speed 8.5 X
Track quality 100.0 %
Test CRC ACDA50E8
Copy CRC ACDA50E8
Cannot be verified as accurate (confidence 5) [42FB0E92], AccurateRip returned [8FE404B1] (AR v2)
Copy OK

Track 16

Filename C:\Users\Rob\Desktop\Uploads\Serge Gainsbourg - L'Essentiel Des Albums Studio 1958-1987 (2011) [FLAC] (14 Albums On 12 CDs)\1958 - Du Chant A La Une\16 - Jeunes Femmes Et Vieux Messieurs.wav

Pre-gap length 0:00:02.21

Peak level 100.0 %
Extraction speed 8.5 X
Track quality 100.0 %
Test CRC A717401B
Copy CRC A717401B
Cannot be verified as accurate (confidence 5) [974EA4EB], AccurateRip returned [5EAB97A3] (AR v2)
Copy OK

Track 17

Filename C:\Users\Rob\Desktop\Uploads\Serge Gainsbourg - L'Essentiel Des Albums Studio 1958-1987 (2011) [FLAC] (14 Albums On 12 CDs)\1958 - Du Chant A La Une\17 - L'amour A La Papa.wav

Pre-gap length 0:00:02.09

Peak level 95.8 %
Extraction speed 9.1 X
Track quality 100.0 %
Test CRC 428608B0
Copy CRC 428608B0
Cannot be verified as accurate (confidence 5) [26C3F629], AccurateRip returned [A7EDBF61] (AR v2)
Copy OK


No tracks could be verified as accurate
You may have a different pressing from the one(s) in the database

No errors occurred

End of status report

==== Log checksum 51D00431A9518D99A262FF7A846CD603D4F8E7F513B97F65BD7FD2FBC7CC2287 ====

––-

Exact Audio Copy V1.0 beta 3 from 29. August 2011

EAC extraction logfile from 28. August 2015, 14:28

Serge Gainsbourg / L'etonnant

Used drive : ATAPI iHBS212 2 Adapter: 3 ID: 0

Read mode : Secure
Utilize accurate stream : Yes
Defeat audio cache : Yes
Make use of C2 pointers : No

Read offset correction : 6
Overread into Lead-In and Lead-Out : No
Fill up missing offset samples with silence : Yes
Delete leading and trailing silent blocks : No
Null samples used in CRC calculations : Yes
Used interface : Native Win32 interface for Win NT & 2000
Gap handling : Appended to previous track

Used output format : User Defined Encoder
Selected bitrate : 128 kBit/s
Quality : High
Add ID3 tag : No
Command line compressor : C:\Program Files (x86)\Exact Audio Copy\Flac\flac.exe
Additional command line options : -8 -V -T "ARTIST=%artist%" -T "TITLE=%title%" -T "ALBUM=%albumtitle%" -T "DATE=%year%" -T "TRACKNUMBER=%tracknr%" -T "TOTALTRACKS=%numtracks%" -T "GENRE=%genre%" -T "ALBUMARTIST=%albumartist%" -T "ALBUM ARTIST=%albumartist%" -T "COMMENT=EAC Secure Mode, Test & Copy, AccurateRip, FLAC -8" %source%


TOC of the extracted CD

Track | Start | Length | Start sector | End sector
––––––––––––––––––––––––––––-
1 | 0:00.00 | 3:01.60 | 0 | 13634
2 | 3:01.60 | 2:01.49 | 13635 | 22758
3 | 5:03.34 | 1:51.56 | 22759 | 31139
4 | 6:55.15 | 2:28.65 | 31140 | 42304
5 | 9:24.05 | 2:05.40 | 42305 | 51719
6 | 11:29.45 | 3:23.12 | 51720 | 66956
7 | 14:52.57 | 2:57.73 | 66957 | 80304
8 | 17:50.55 | 2:32.72 | 80305 | 91776
9 | 20:23.52 | 2:44.33 | 91777 | 104109
10 | 23:08.10 | 1:57.32 | 104110 | 112916
11 | 25:05.42 | 2:39.42 | 112917 | 124883
12 | 27:45.09 | 2:37.60 | 124884 | 136718
13 | 30:22.69 | 2:28.13 | 136719 | 147831
14 | 32:51.07 | 2:38.50 | 147832 | 159731
15 | 35:29.57 | 1:51.00 | 159732 | 168056
16 | 37:20.57 | 1:47.20 | 168057 | 176101
17 | 39:08.02 | 2:40.17 | 176102 | 188118
18 | 41:48.19 | 2:20.12 | 188119 | 198630


Track 1

Filename C:\Users\Rob\Desktop\Uploads\Serge Gainsbourg - L'Essentiel Des Albums Studio 1958-1987 (2011) [FLAC] (14 Albums On 12 CDs)\1961 - L'etonnant\01 - La Chanson De Prevert.wav

Pre-gap length 0:00:02.00

Peak level 96.5 %
Extraction speed 5.1 X
Track quality 100.0 %
Test CRC D89EF0E0
Copy CRC D89EF0E0
Cannot be verified as accurate (confidence 6) [A7212207], AccurateRip returned [460FCCF3] (AR v2)
Copy OK

Track 2

Filename C:\Users\Rob\Desktop\Uploads\Serge Gainsbourg - L'Essentiel Des Albums Studio 1958-1987 (2011) [FLAC] (14 Albums On 12 CDs)\1961 - L'etonnant\02 - En Relisant Ta Lettre.wav

Pre-gap length 0:00:02.18

Peak level 93.6 %
Extraction speed 5.1 X
Track quality 100.0 %
Test CRC EDDE9749
Copy CRC EDDE9749
Cannot be verified as accurate (confidence 6) [05ACD579], AccurateRip returned [3E0EE932] (AR v2)
Copy OK

Track 3

Filename C:\Users\Rob\Desktop\Uploads\Serge Gainsbourg - L'Essentiel Des Albums Studio 1958-1987 (2011) [FLAC] (14 Albums On 12 CDs)\1961 - L'etonnant\03 - Le Rock De Nerval.wav

Pre-gap length 0:00:01.74

Peak level 94.4 %
Extraction speed 5.3 X
Track quality 100.0 %
Test CRC 8EE0D9A1
Copy CRC 8EE0D9A1
Cannot be verified as accurate (confidence 6) [20D52AAC], AccurateRip returned [67708D1C] (AR v2)
Copy OK

Track 4

Filename C:\Users\Rob\Desktop\Uploads\Serge Gainsbourg - L'Essentiel Des Albums Studio 1958-1987 (2011) [FLAC] (14 Albums On 12 CDs)\1961 - L'etonnant\04 - Les Oubliettes.wav

Pre-gap length 0:00:01.03

Peak level 79.4 %
Extraction speed 5.8 X
Track quality 100.0 %
Test CRC 3285C02C
Copy CRC 3285C02C
Cannot be verified as accurate (confidence 6) [1235C2D3], AccurateRip returned [5BC40088] (AR v2)
Copy OK

Track 5

Filename C:\Users\Rob\Desktop\Uploads\Serge Gainsbourg - L'Essentiel Des Albums Studio 1958-1987 (2011) [FLAC] (14 Albums On 12 CDs)\1961 - L'etonnant\05 - Chanson De Maglia.wav

Pre-gap length 0:00:02.48

Peak level 100.0 %
Extraction speed 5.8 X
Track quality 100.0 %
Test CRC 3315E5A2
Copy CRC 3315E5A2
Cannot be verified as accurate (confidence 6) [23FB76FB], AccurateRip returned [55048CB6] (AR v2)
Copy OK

Track 6

Filename C:\Users\Rob\Desktop\Uploads\Serge Gainsbourg - L'Essentiel Des Albums Studio 1958-1987 (2011) [FLAC] (14 Albums On 12 CDs)\1961 - L'etonnant\06 - Viva Villa.wav

Pre-gap length 0:00:02.00

Peak level 94.4 %
Extraction speed 5.5 X
Track quality 99.9 %
Test CRC 217D9150
Copy CRC 217D9150
Cannot be verified as accurate (confidence 6) [664EBD8B], AccurateRip returned [53AD4D9D] (AR v2)
Copy OK

Track 7

Filename C:\Users\Rob\Desktop\Uploads\Serge Gainsbourg - L'Essentiel Des Albums Studio 1958-1987 (2011) [FLAC] (14 Albums On 12 CDs)\1961 - L'etonnant\07 - Les Amours Perdues.wav

Pre-gap length 0:00:02.32

Peak level 100.0 %
Extraction speed 5.5 X
Track quality 99.9 %
Test CRC A740F4CD
Copy CRC A740F4CD
Cannot be verified as accurate (confidence 6) [47E7D769], AccurateRip returned [89F464CA] (AR v2)
Copy OK

Track 8

Filename C:\Users\Rob\Desktop\Uploads\Serge Gainsbourg - L'Essentiel Des Albums Studio 1958-1987 (2011) [FLAC] (14 Albums On 12 CDs)\1961 - L'etonnant\08 - Les Femmes C'est Du Chinois.wav

Pre-gap length 0:00:02.23

Peak level 93.8 %
Extraction speed 7.1 X
Track quality 100.0 %
Test CRC E6A5224D
Copy CRC E6A5224D
Cannot be verified as accurate (confidence 6) [88AFCE30], AccurateRip returned [C1D64E08] (AR v2)
Copy OK

Track 9

Filename C:\Users\Rob\Desktop\Uploads\Serge Gainsbourg - L'Essentiel Des Albums Studio 1958-1987 (2011) [FLAC] (14 Albums On 12 CDs)\1961 - L'etonnant\09 - Personne.wav

Pre-gap length 0:00:02.12

Peak level 86.3 %
Extraction speed 7.4 X
Track quality 100.0 %
Test CRC 10C71E95
Copy CRC 10C71E95
Cannot be verified as accurate (confidence 6) [CD3A982E], AccurateRip returned [CAA21987] (AR v2)
Copy OK

Track 10

Filename C:\Users\Rob\Desktop\Uploads\Serge Gainsbourg - L'Essentiel Des Albums Studio 1958-1987 (2011) [FLAC] (14 Albums On 12 CDs)\1961 - L'etonnant\10 - Le Sonnet D'arvers.wav

Pre-gap length 0:00:01.10

Peak level 100.0 %
Extraction speed 7.1 X
Track quality 100.0 %
Test CRC 6ACAE79C
Copy CRC 6ACAE79C
Cannot be verified as accurate (confidence 6) [1E2FACC2], AccurateRip returned [BDAF2DB7] (AR v2)
Copy OK

Track 11

Filename C:\Users\Rob\Desktop\Uploads\Serge Gainsbourg - L'Essentiel Des Albums Studio 1958-1987 (2011) [FLAC] (14 Albums On 12 CDs)\1961 - L'etonnant\11 - Les Goemons.wav

Pre-gap length 0:00:03.72

Peak level 89.1 %
Extraction speed 7.9 X
Track quality 100.0 %
Test CRC F935EE77
Copy CRC F935EE77
Cannot be verified as accurate (confidence 6) [C64CE39D], AccurateRip returned [D431CB8F] (AR v2)
Copy OK

Track 12

Filename C:\Users\Rob\Desktop\Uploads\Serge Gainsbourg - L'Essentiel Des Albums Studio 1958-1987 (2011) [FLAC] (14 Albums On 12 CDs)\1961 - L'etonnant\12 - Black Trombone.wav

Pre-gap length 0:00:01.74

Peak level 89.1 %
Extraction speed 8.0 X
Track quality 100.0 %
Test CRC 6BD71092
Copy CRC 6BD71092
Cannot be verified as accurate (confidence 6) [B3BE455D], AccurateRip returned [BBF68CF8] (AR v2)
Copy OK

Track 13

Filename C:\Users\Rob\Desktop\Uploads\Serge Gainsbourg - L'Essentiel Des Albums Studio 1958-1987 (2011) [FLAC] (14 Albums On 12 CDs)\1961 - L'etonnant\13 - Baudelaire.wav

Pre-gap length 0:00:01.24

Peak level 89.1 %
Extraction speed 8.1 X
Track quality 100.0 %
Test CRC 567EC3B3
Copy CRC 567EC3B3
Cannot be verified as accurate (confidence 6) [1F6150FB], AccurateRip returned [CA045205] (AR v2)
Copy OK

Track 14

Filename C:\Users\Rob\Desktop\Uploads\Serge Gainsbourg - L'Essentiel Des Albums Studio 1958-1987 (2011) [FLAC] (14 Albums On 12 CDs)\1961 - L'etonnant\14 - Intoxicated Man.wav

Pre-gap length 0:00:01.64

Peak level 89.1 %
Extraction speed 6.4 X
Track quality 99.9 %
Test CRC 2DB24026
Copy CRC 2DB24026
Cannot be verified as accurate (confidence 6) [82F66486], AccurateRip returned [D5674DC0] (AR v2)
Copy OK

Track 15

Filename C:\Users\Rob\Desktop\Uploads\Serge Gainsbourg - L'Essentiel Des Albums Studio 1958-1987 (2011) [FLAC] (14 Albums On 12 CDs)\1961 - L'etonnant\15 - Quand Tu T'Y Mets.wav

Pre-gap length 0:00:02.19

Peak level 89.1 %
Extraction speed 8.0 X
Track quality 100.0 %
Test CRC A7E3DE65
Copy CRC A7E3DE65
Cannot be verified as accurate (confidence 6) [CB5CBEB2], AccurateRip returned [26CAC740] (AR v2)
Copy OK

Track 16

Filename C:\Users\Rob\Desktop\Uploads\Serge Gainsbourg - L'Essentiel Des Albums Studio 1958-1987 (2011) [FLAC] (14 Albums On 12 CDs)\1961 - L'etonnant\16 - Les Cigarillos.wav

Pre-gap length 0:00:01.52

Peak level 79.4 %
Extraction speed 8.0 X
Track quality 100.0 %
Test CRC 99AF8A3B
Copy CRC 99AF8A3B
Cannot be verified as accurate (confidence 6) [0094573B], AccurateRip returned [85B2A46F] (AR v2)
Copy OK

Track 17

Filename C:\Users\Rob\Desktop\Uploads\Serge Gainsbourg - L'Essentiel Des Albums Studio 1958-1987 (2011) [FLAC] (14 Albums On 12 CDs)\1961 - L'etonnant\17 - Requiem Pour Un Twisteur.wav

Pre-gap length 0:00:01.17

Peak level 84.1 %
Extraction speed 8.9 X
Track quality 100.0 %
Test CRC 3D16DDFD
Copy CRC 3D16DDFD
Cannot be verified as accurate (confidence 6) [AD3FEB47], AccurateRip returned [BA06596C] (AR v2)
Copy OK

Track 18

Filename C:\Users\Rob\Desktop\Uploads\Serge Gainsbourg - L'Essentiel Des Albums Studio 1958-1987 (2011) [FLAC] (14 Albums On 12 CDs)\1961 - L'etonnant\18 - Ce Grand Mechant Vous.wav

Pre-gap length 0:00:02.29

Peak level 84.1 %
Extraction speed 8.7 X
Track quality 100.0 %
Test CRC AD2E6C76
Copy CRC AD2E6C76
Cannot be verified as accurate (confidence 6) [1DFA01F4], AccurateRip returned [B2F00070] (AR v2)
Copy OK


No tracks could be verified as accurate
You may have a different pressing from the one(s) in the database

No errors occurred

End of status report

==== Log checksum 4B4CCB1361C94AAFF590B47D789DE1FE8F760DEA89A08ED8855D4F90ED840493 ====

––-

Exact Audio Copy V1.0 beta 3 from 29. August 2011

EAC extraction logfile from 28. August 2015, 15:15

Serge Gainsbourg / Gainsbourg Percussions

Used drive : ATAPI iHBS212 2 Adapter: 3 ID: 0

Read mode : Secure
Utilize accurate stream : Yes
Defeat audio cache : Yes
Make use of C2 pointers : No

Read offset correction : 6
Overread into Lead-In and Lead-Out : No
Fill up missing offset samples with silence : Yes
Delete leading and trailing silent blocks : No
Null samples used in CRC calculations : Yes
Used interface : Native Win32 interface for Win NT & 2000
Gap handling : Appended to previous track

Used output format : User Defined Encoder
Selected bitrate : 128 kBit/s
Quality : High
Add ID3 tag : No
Command line compressor : C:\Program Files (x86)\Exact Audio Copy\Flac\flac.exe
Additional command line options : -8 -V -T "ARTIST=%artist%" -T "TITLE=%title%" -T "ALBUM=%albumtitle%" -T "DATE=%year%" -T "TRACKNUMBER=%tracknr%" -T "TOTALTRACKS=%numtracks%" -T "GENRE=%genre%" -T "ALBUMARTIST=%albumartist%" -T "ALBUM ARTIST=%albumartist%" -T "COMMENT=EAC Secure Mode, Test & Copy, AccurateRip, FLAC -8" %source%


TOC of the extracted CD

Track | Start | Length | Start sector | End sector
––––––––––––––––––––––––––––-
1 | 0:00.00 | 2:02.32 | 0 | 9181
2 | 2:02.32 | 2:32.45 | 9182 | 20626
3 | 4:35.02 | 2:31.70 | 20627 | 32021
4 | 7:06.72 | 1:53.70 | 32022 | 40566
5 | 9:00.67 | 3:19.15 | 40567 | 55506
6 | 12:20.07 | 2:03.53 | 55507 | 64784
7 | 14:23.60 | 2:18.15 | 64785 | 75149
8 | 16:42.00 | 2:14.72 | 75150 | 85271
9 | 18:56.72 | 2:12.23 | 85272 | 95194
10 | 21:09.20 | 2:04.22 | 95195 | 104516
11 | 23:13.42 | 1:46.48 | 104517 | 112514
12 | 25:00.15 | 3:00.52 | 112515 | 126066


Track 1

Filename C:\Users\Rob\Desktop\Uploads\Serge Gainsbourg - L'Essentiel Des Albums Studio 1958-1987 (2011) [FLAC] (14 Albums On 12 CDs)\1964 - Gainsbourg Percussions\01 - Joanna.wav

Pre-gap length 0:00:02.00

Peak level 100.0 %
Extraction speed 4.7 X
Track quality 100.0 %
Test CRC 0A9B511C
Copy CRC 0A9B511C
Accurately ripped (confidence 4) [D51593C7] (AR v2)
Copy OK

Track 2

Filename C:\Users\Rob\Desktop\Uploads\Serge Gainsbourg - L'Essentiel Des Albums Studio 1958-1987 (2011) [FLAC] (14 Albums On 12 CDs)\1964 - Gainsbourg Percussions\02 - Ls-Bas C'est Naturel.wav

Pre-gap length 0:00:01.37

Peak level 100.0 %
Extraction speed 5.3 X
Track quality 100.0 %
Test CRC 9D8C77B8
Copy CRC 9D8C77B8
Accurately ripped (confidence 4) [405E50EF] (AR v2)
Copy OK

Track 3

Filename C:\Users\Rob\Desktop\Uploads\Serge Gainsbourg - L'Essentiel Des Albums Studio 1958-1987 (2011) [FLAC] (14 Albums On 12 CDs)\1964 - Gainsbourg Percussions\03 - Pauvre Lola.wav

Pre-gap length 0:00:02.00

Peak level 100.0 %
Extraction speed 5.6 X
Track quality 100.0 %
Test CRC 152AED16
Copy CRC 152AED16
Accurately ripped (confidence 4) [4077082C] (AR v2)
Copy OK

Track 4

Filename C:\Users\Rob\Desktop\Uploads\Serge Gainsbourg - L'Essentiel Des Albums Studio 1958-1987 (2011) [FLAC] (14 Albums On 12 CDs)\1964 - Gainsbourg Percussions\04 - Quand Mon 6 35 Me Fait Les Yeux Doux.wav

Pre-gap length 0:00:03.70

Peak level 100.0 %
Extraction speed 5.4 X
Track quality 100.0 %
Test CRC A0F3F2F2
Copy CRC A0F3F2F2
Accurately ripped (confidence 4) [D2E57562] (AR v2)
Copy OK

Track 5

Filename C:\Users\Rob\Desktop\Uploads\Serge Gainsbourg - L'Essentiel Des Albums Studio 1958-1987 (2011) [FLAC] (14 Albums On 12 CDs)\1964 - Gainsbourg Percussions\05 - Machins Choses.wav

Pre-gap length 0:00:02.47

Peak level 100.0 %
Extraction speed 5.3 X
Track quality 99.9 %
Test CRC C0E7A9C9
Copy CRC C0E7A9C9
Accurately ripped (confidence 4) [E5E87D78] (AR v2)
Copy OK

Track 6

Filename C:\Users\Rob\Desktop\Uploads\Serge Gainsbourg - L'Essentiel Des Albums Studio 1958-1987 (2011) [FLAC] (14 Albums On 12 CDs)\1964 - Gainsbourg Percussions\06 - Les Sambassadeurs.wav

Pre-gap length 0:00:02.70

Peak level 100.0 %
Extraction speed 6.2 X
Track quality 100.0 %
Test CRC 56164ECE
Copy CRC 56164ECE
Accurately ripped (confidence 4) [A3279182] (AR v2)
Copy OK

Track 7

Filename C:\Users\Rob\Desktop\Uploads\Serge Gainsbourg - L'Essentiel Des Albums Studio 1958-1987 (2011) [FLAC] (14 Albums On 12 CDs)\1964 - Gainsbourg Percussions\07 - New York - USA.wav

Pre-gap length 0:00:02.13

Peak level 100.0 %
Extraction speed 6.6 X
Track quality 100.0 %
Test CRC A65745E9
Copy CRC A65745E9
Accurately ripped (confidence 4) [71D51953] (AR v2)
Copy OK

Track 8

Filename C:\Users\Rob\Desktop\Uploads\Serge Gainsbourg - L'Essentiel Des Albums Studio 1958-1987 (2011) [FLAC] (14 Albums On 12 CDs)\1964 - Gainsbourg Percussions\08 - Couleur Cafe.wav

Pre-gap length 0:00:02.35

Peak level 100.0 %
Extraction speed 6.7 X
Track quality 100.0 %
Test CRC 0B9992C8
Copy CRC 0B9992C8
Accurately ripped (confidence 4) [A50ACED2] (AR v2)
Copy OK

Track 9

Filename C:\Users\Rob\Desktop\Uploads\Serge Gainsbourg - L'Essentiel Des Albums Studio 1958-1987 (2011) [FLAC] (14 Albums On 12 CDs)\1964 - Gainsbourg Percussions\09 - Marabout.wav

Pre-gap length 0:00:02.55

Peak level 100.0 %
Extraction speed 6.9 X
Track quality 100.0 %
Test CRC 094156D1
Copy CRC 094156D1
Accurately ripped (confidence 4) [26A5FC03] (AR v2)
Copy OK

Track 10

Filename C:\Users\Rob\Desktop\Uploads\Serge Gainsbourg - L'Essentiel Des Albums Studio 1958-1987 (2011) [FLAC] (14 Albums On 12 CDs)\1964 - Gainsbourg Percussions\10 - Ces Petits Riens.wav

Pre-gap length 0:00:03.10

Peak level 100.0 %
Extraction speed 7.0 X
Track quality 100.0 %
Test CRC 1D5FA37B
Copy CRC 1D5FA37B
Accurately ripped (confidence 4) [752D7A8C] (AR v2)
Copy OK

Track 11

Filename C:\Users\Rob\Desktop\Uploads\Serge Gainsbourg - L'Essentiel Des Albums Studio 1958-1987 (2011) [FLAC] (14 Albums On 12 CDs)\1964 - Gainsbourg Percussions\11 - Tatoue Jeremie.wav

Pre-gap length 0:00:02.57

Peak level 100.0 %
Extraction speed 6.9 X
Track quality 100.0 %
Test CRC DDA0792F
Copy CRC DDA0792F
Accurately ripped (confidence 4) [D6AE7656] (AR v2)
Copy OK

Track 12

Filename C:\Users\Rob\Desktop\Uploads\Serge Gainsbourg - L'Essentiel Des Albums Studio 1958-1987 (2011) [FLAC] (14 Albums On 12 CDs)\1964 - Gainsbourg Percussions\12 - Coco And Co.wav

Pre-gap length 0:00:03.00

Peak level 100.0 %
Extraction speed 7.9 X
Track quality 100.0 %
Test CRC 1C203C2D
Copy CRC 1C203C2D
Accurately ripped (confidence 4) [26685BAC] (AR v2)
Copy OK


All tracks accurately ripped

No errors occurred

End of status report

==== Log checksum E7952019847A959DD6DDFD9BA47CA445B2DF277A29339916B8C4F50660236455 ====

––-

Exact Audio Copy V1.0 beta 3 from 29. August 2011

EAC extraction logfile from 28. August 2015, 15:32

Serge Gainsbourg / Initials B.B.

Used drive : ATAPI iHBS212 2 Adapter: 3 ID: 0

Read mode : Secure
Utilize accurate stream : Yes
Defeat audio cache : Yes
Make use of C2 pointers : No

Read offset correction : 6
Overread into Lead-In and Lead-Out : No
Fill up missing offset samples with silence : Yes
Delete leading and trailing silent blocks : No
Null samples used in CRC calculations : Yes
Used interface : Native Win32 interface for Win NT & 2000
Gap handling : Appended to previous track

Used output format : User Defined Encoder
Selected bitrate : 128 kBit/s
Quality : High
Add ID3 tag : No
Command line compressor : C:\Program Files (x86)\Exact Audio Copy\Flac\flac.exe
Additional command line options : -8 -V -T "ARTIST=%artist%" -T "TITLE=%title%" -T "ALBUM=%albumtitle%" -T "DATE=%year%" -T "TRACKNUMBER=%tracknr%" -T "TOTALTRACKS=%numtracks%" -T "GENRE=%genre%" -T "ALBUMARTIST=%albumartist%" -T "ALBUM ARTIST=%albumartist%" -T "COMMENT=EAC Secure Mode, Test & Copy, AccurateRip, FLAC -8" %source%


TOC of the extracted CD

Track | Start | Length | Start sector | End sector
––––––––––––––––––––––––––––-
1 | 0:00.00 | 3:35.70 | 0 | 16194
2 | 3:35.70 | 2:12.57 | 16195 | 26151
3 | 5:48.52 | 2:05.70 | 26152 | 35596
4 | 7:54.47 | 1:56.23 | 35597 | 44319
5 | 9:50.70 | 2:43.37 | 44320 | 56581
6 | 12:34.32 | 2:08.15 | 56582 | 66196
7 | 14:42.47 | 2:40.50 | 66197 | 78246
8 | 17:23.22 | 4:18.50 | 78247 | 97646
9 | 21:41.72 | 2:10.10 | 97647 | 107406
10 | 23:52.07 | 2:14.35 | 107407 | 117491
11 | 26:06.42 | 2:20.20 | 117492 | 128011
12 | 28:26.62 | 2:33.58 | 128012 | 139544


Track 1

Filename C:\Users\Rob\Desktop\Uploads\Serge Gainsbourg - L'Essentiel Des Albums Studio 1958-1987 (2011) [FLAC] (14 Albums On 12 CDs)\1968 - Initials B.B\01 - Initials B.B..wav

Pre-gap length 0:00:02.00

Peak level 100.0 %
Extraction speed 5.3 X
Track quality 100.0 %
Test CRC E56DBA79
Copy CRC E56DBA79
Cannot be verified as accurate (confidence 7) [2EF45A3F], AccurateRip returned [CA67406A] (AR v2)
Copy OK

Track 2

Filename C:\Users\Rob\Desktop\Uploads\Serge Gainsbourg - L'Essentiel Des Albums Studio 1958-1987 (2011) [FLAC] (14 Albums On 12 CDs)\1968 - Initials B.B\02 - Comic Strip.wav

Pre-gap length 0:00:02.38

Peak level 89.1 %
Extraction speed 5.3 X
Track quality 100.0 %
Test CRC CFDEB3EC
Copy CRC CFDEB3EC
Cannot be verified as accurate (confidence 7) [2F7C6B8B], AccurateRip returned [3FB1F30B] (AR v2)
Copy OK

Track 3

Filename C:\Users\Rob\Desktop\Uploads\Serge Gainsbourg - L'Essentiel Des Albums Studio 1958-1987 (2011) [FLAC] (14 Albums On 12 CDs)\1968 - Initials B.B\03 - Bloody Jack.wav

Pre-gap length 0:00:02.62

Peak level 89.1 %
Extraction speed 5.5 X
Track quality 100.0 %
Test CRC F0CD95F0
Copy CRC F0CD95F0
Cannot be verified as accurate (confidence 7) [D59146DF], AccurateRip returned [BA857E3F] (AR v2)
Copy OK

Track 4

Filename C:\Users\Rob\Desktop\Uploads\Serge Gainsbourg - L'Essentiel Des Albums Studio 1958-1987 (2011) [FLAC] (14 Albums On 12 CDs)\1968 - Initials B.B\04 - Docteur Jekyll Et Monsieur Hyde.wav

Pre-gap length 0:00:02.55

Peak level 100.0 %
Extraction speed 5.6 X
Track quality 100.0 %
Test CRC 1509B7B7
Copy CRC 1509B7B7
Cannot be verified as accurate (confidence 7) [427F44DD], AccurateRip returned [9E1F0526] (AR v2)
Copy OK

Track 5

Filename C:\Users\Rob\Desktop\Uploads\Serge Gainsbourg - L'Essentiel Des Albums Studio 1958-1987 (2011) [FLAC] (14 Albums On 12 CDs)\1968 - Initials B.B\05 - Torrey Canyon.wav

Pre-gap length 0:00:01.33

Peak level 100.0 %
Extraction speed 6.2 X
Track quality 100.0 %
Test CRC F58CA165
Copy CRC F58CA165
Cannot be verified as accurate (confidence 7) [27DA4DA1], AccurateRip returned [D76B0FE1] (AR v2)
Copy OK

Track 6

Filename C:\Users\Rob\Desktop\Uploads\Serge Gainsbourg - L'Essentiel Des Albums Studio 1958-1987 (2011) [FLAC] (14 Albums On 12 CDs)\1968 - Initials B.B\06 - Shu Ba Du Ba Loo Ba.wav

Pre-gap length 0:00:01.55

Peak level 100.0 %
Extraction speed 6.2 X
Track quality 100.0 %
Test CRC 26B3ECF7
Copy CRC 26B3ECF7
Cannot be verified as accurate (confidence 7) [BB273ACD], AccurateRip returned [FE28B636] (AR v2)
Copy OK

Track 7

Filename C:\Users\Rob\Desktop\Uploads\Serge Gainsbourg - L'Essentiel Des Albums Studio 1958-1987 (2011) [FLAC] (14 Albums On 12 CDs)\1968 - Initials B.B\07 - Ford Mustang.wav

Pre-gap length 0:00:01.70

Peak level 100.0 %
Extraction speed 5.3 X
Track quality 99.9 %
Test CRC D75018CE
Copy CRC D75018CE
Cannot be verified as accurate (confidence 7) [BC9103D9], AccurateRip returned [BE55A9BB] (AR v2)
Copy OK

Track 8

Filename C:\Users\Rob\Desktop\Uploads\Serge Gainsbourg - L'Essentiel Des Albums Studio 1958-1987 (2011) [FLAC] (14 Albums On 12 CDs)\1968 - Initials B.B\08 - Bonnie And Clyde.wav

Pre-gap length 0:00:01.47

Peak level 100.0 %
Extraction speed 7.7 X
Track quality 100.0 %
Test CRC 38412570
Copy CRC 38412570
Cannot be verified as accurate (confidence 7) [181502D4], AccurateRip returned [7EFDB80F] (AR v2)
Copy OK

Track 9

Filename C:\Users\Rob\Desktop\Uploads\Serge Gainsbourg - L'Essentiel Des Albums Studio 1958-1987 (2011) [FLAC] (14 Albums On 12 CDs)\1968 - Initials B.B\09 - Black And White.wav

Pre-gap length 0:00:02.57

Peak level 100.0 %
Extraction speed 5.2 X
Track quality 99.9 %
Test CRC 467AF276
Copy CRC 467AF276
Cannot be verified as accurate (confidence 7) [78364925], AccurateRip returned [1F46ED5F] (AR v2)
Copy OK

Track 10

Filename C:\Users\Rob\Desktop\Uploads\Serge Gainsbourg - L'Essentiel Des Albums Studio 1958-1987 (2011) [FLAC] (14 Albums On 12 CDs)\1968 - Initials B.B\10 - Qui Est In Qui Est Outt.wav

Pre-gap length 0:00:02.10

Peak level 100.0 %
Extraction speed 5.5 X
Track quality 99.9 %
Test CRC 8A2EE10F
Copy CRC 8A2EE10F
Cannot be verified as accurate (confidence 7) [789FBF3B], AccurateRip returned [F0F31D8F] (AR v2)
Copy OK

Track 11

Filename C:\Users\Rob\Desktop\Uploads\Serge Gainsbourg - L'Essentiel Des Albums Studio 1958-1987 (2011) [FLAC] (14 Albums On 12 CDs)\1968 - Initials B.B\11 - Hold-Up.wav

Pre-gap length 0:00:02.20

Peak level 100.0 %
Extraction speed 7.6 X
Track quality 100.0 %
Test CRC 4458A434
Copy CRC 4458A434
Cannot be verified as accurate (confidence 7) [EB40D93C], AccurateRip returned [71D5C036] (AR v2)
Copy OK

Track 12

Filename C:\Users\Rob\Desktop\Uploads\Serge Gainsbourg - L'Essentiel Des Albums Studio 1958-1987 (2011) [FLAC] (14 Albums On 12 CDs)\1968 - Initials B.B\12 - Marilu.wav

Pre-gap length 0:00:02.25

Peak level 89.1 %
Extraction speed 8.0 X
Track quality 100.0 %
Test CRC 42623939
Copy CRC 42623939
Cannot be verified as accurate (confidence 7) [E4323A12], AccurateRip returned [4B0B1055] (AR v2)
Copy OK


No tracks could be verified as accurate
You may have a different pressing from the one(s) in the database

No errors occurred

End of status report

==== Log checksum 60A215E53B1EB214E07FD48A97E6A1F759381E45758F484038B1E5E19EBB8D11 ====

––-

Exact Audio Copy V1.0 beta 3 from 29. August 2011

EAC extraction logfile from 28. August 2015, 16:06

Jane Birkin, Serge Gainsbourg / Je T'aime…Moi Non Plus

Used drive : ATAPI iHBS212 2 Adapter: 3 ID: 0

Read mode : Secure
Utilize accurate stream : Yes
Defeat audio cache : Yes
Make use of C2 pointers : No

Read offset correction : 6
Overread into Lead-In and Lead-Out : No
Fill up missing offset samples with silence : Yes
Delete leading and trailing silent blocks : No
Null samples used in CRC calculations : Yes
Used interface : Native Win32 interface for Win NT & 2000
Gap handling : Appended to previous track

Used output format : User Defined Encoder
Selected bitrate : 128 kBit/s
Quality : High
Add ID3 tag : No
Command line compressor : C:\Program Files (x86)\Exact Audio Copy\Flac\flac.exe
Additional command line options : -8 -V -T "ARTIST=%artist%" -T "TITLE=%title%" -T "ALBUM=%albumtitle%" -T "DATE=%year%" -T "TRACKNUMBER=%tracknr%" -T "TOTALTRACKS=%numtracks%" -T "GENRE=%genre%" -T "ALBUMARTIST=%albumartist%" -T "ALBUM ARTIST=%albumartist%" -T "COMMENT=EAC Secure Mode, Test & Copy, AccurateRip, FLAC -8" %source%


TOC of the extracted CD

Track | Start | Length | Start sector | End sector
––––––––––––––––––––––––––––-
1 | 0:00.00 | 4:23.72 | 0 | 19796
2 | 4:23.72 | 2:17.70 | 19797 | 30141
3 | 6:41.67 | 2:28.03 | 30142 | 41244
4 | 9:09.70 | 2:52.27 | 41245 | 54171
5 | 12:02.22 | 2:39.68 | 54172 | 66164
6 | 14:42.15 | 3:21.45 | 66165 | 81284
7 | 18:03.60 | 3:09.07 | 81285 | 95466
8 | 21:12.67 | 2:31.25 | 95467 | 106816
9 | 23:44.17 | 2:20.08 | 106817 | 117324
10 | 26:04.25 | 2:37.72 | 117325 | 129171
11 | 28:42.22 | 2:41.30 | 129172 | 141276


Track 1

Filename C:\Users\Rob\Desktop\Uploads\Serge Gainsbourg - L'Essentiel Des Albums Studio 1958-1987 (2011) [FLAC] (14 Albums On 12 CDs)\1969 - Je T'aime…Moi Non Plus\01 - Je T'aime Moi Non Plus.wav

Pre-gap length 0:00:02.00

Peak level 100.0 %
Extraction speed 4.7 X
Track quality 99.9 %
Test CRC BF0D96FA
Copy CRC BF0D96FA
Cannot be verified as accurate (confidence 11) [FCDD239F], AccurateRip returned [2254269D] (AR v2)
Copy OK

Track 2

Filename C:\Users\Rob\Desktop\Uploads\Serge Gainsbourg - L'Essentiel Des Albums Studio 1958-1987 (2011) [FLAC] (14 Albums On 12 CDs)\1969 - Je T'aime…Moi Non Plus\02 - L'Ananamour.wav

Pre-gap length 0:00:01.60

Peak level 100.0 %
Extraction speed 5.4 X
Track quality 100.0 %
Test CRC 425DFE4A
Copy CRC 425DFE4A
Cannot be verified as accurate (confidence 12) [18B6628F], AccurateRip returned [7557DA6D] (AR v2)
Copy OK

Track 3

Filename C:\Users\Rob\Desktop\Uploads\Serge Gainsbourg - L'Essentiel Des Albums Studio 1958-1987 (2011) [FLAC] (14 Albums On 12 CDs)\1969 - Je T'aime…Moi Non Plus\03 - Orang Outang.wav

Pre-gap length 0:00:01.57

Peak level 89.1 %
Extraction speed 4.4 X
Track quality 99.9 %
Test CRC 47342AE6
Copy CRC 47342AE6
Cannot be verified as accurate (confidence 12) [49271AD4], AccurateRip returned [7F62B71E] (AR v2)
Copy OK

Track 4

Filename C:\Users\Rob\Desktop\Uploads\Serge Gainsbourg - L'Essentiel Des Albums Studio 1958-1987 (2011) [FLAC] (14 Albums On 12 CDs)\1969 - Je T'aime…Moi Non Plus\04 - Sous Le Soleil Exactement.wav

Pre-gap length 0:00:02.18

Peak level 100.0 %
Extraction speed 6.3 X
Track quality 100.0 %
Test CRC C51618C2
Copy CRC C51618C2
Cannot be verified as accurate (confidence 12) [3B5DDFCB], AccurateRip returned [4B026378] (AR v2)
Copy OK

Track 5

Filename C:\Users\Rob\Desktop\Uploads\Serge Gainsbourg - L'Essentiel Des Albums Studio 1958-1987 (2011) [FLAC] (14 Albums On 12 CDs)\1969 - Je T'aime…Moi Non Plus\05 - 18 - 39.wav

Pre-gap length 0:00:02.02

Peak level 100.0 %
Extraction speed 6.5 X
Track quality 100.0 %
Test CRC E05E1251
Copy CRC E05E1251
Cannot be verified as accurate (confidence 12) [1C83464E], AccurateRip returned [773AD46A] (AR v2)
Copy OK

Track 6

Filename C:\Users\Rob\Desktop\Uploads\Serge Gainsbourg - L'Essentiel Des Albums Studio 1958-1987 (2011) [FLAC] (14 Albums On 12 CDs)\1969 - Je T'aime…Moi Non Plus\06 - 69 Annee Erotique.wav

Pre-gap length 0:00:02.10

Peak level 100.0 %
Extraction speed 7.1 X
Track quality 100.0 %
Test CRC FC3758CB
Copy CRC FC3758CB
Cannot be verified as accurate (confidence 12) [C2C6CB32], AccurateRip returned [B8751DFE] (AR v2)
Copy OK

Track 7

Filename C:\Users\Rob\Desktop\Uploads\Serge Gainsbourg - L'Essentiel Des Albums Studio 1958-1987 (2011) [FLAC] (14 Albums On 12 CDs)\1969 - Je T'aime…Moi Non Plus\07 - Jane B.wav

Pre-gap length 0:00:03.08

Peak level 100.0 %
Extraction speed 7.4 X
Track quality 100.0 %
Test CRC D7E1E975
Copy CRC D7E1E975
Cannot be verified as accurate (confidence 12) [9B7C2925], AccurateRip returned [F5A73291] (AR v2)
Copy OK

Track 8

Filename C:\Users\Rob\Desktop\Uploads\Serge Gainsbourg - L'Essentiel Des Albums Studio 1958-1987 (2011) [FLAC] (14 Albums On 12 CDs)\1969 - Je T'aime…Moi Non Plus\08 - Elisa.wav

Pre-gap length 0:00:02.57

Peak level 94.4 %
Extraction speed 7.4 X
Track quality 100.0 %
Test CRC 76AFCDEA
Copy CRC 76AFCDEA
Cannot be verified as accurate (confidence 11) [2CB12DE9], AccurateRip returned [EFA99579] (AR v2)
Copy OK

Track 9

Filename C:\Users\Rob\Desktop\Uploads\Serge Gainsbourg - L'Essentiel Des Albums Studio 1958-1987 (2011) [FLAC] (14 Albums On 12 CDs)\1969 - Je T'aime…Moi Non Plus\09 - Le Canari Est Sur Le Balcon.wav

Pre-gap length 0:00:01.62

Peak level 89.1 %
Extraction speed 5.6 X
Track quality 99.9 %
Test CRC 7B06E7B7
Copy CRC 7B06E7B7
Cannot be verified as accurate (confidence 12) [08F610F6], AccurateRip returned [90C20D69] (AR v2)
Copy OK

Track 10

Filename C:\Users\Rob\Desktop\Uploads\Serge Gainsbourg - L'Essentiel Des Albums Studio 1958-1987 (2011) [FLAC] (14 Albums On 12 CDs)\1969 - Je T'aime…Moi Non Plus\10 - Les Sucettes.wav

Pre-gap length 0:00:01.35

Peak level 100.0 %
Extraction speed 7.9 X
Track quality 100.0 %
Test CRC 1246F500
Copy CRC 1246F500
Cannot be verified as accurate (confidence 12) [4CDBC89E], AccurateRip returned [319E47D5] (AR v2)
Copy OK

Track 11

Filename C:\Users\Rob\Desktop\Uploads\Serge Gainsbourg - L'Essentiel Des Albums Studio 1958-1987 (2011) [FLAC] (14 Albums On 12 CDs)\1969 - Je T'aime…Moi Non Plus\11 - Manon.wav

Pre-gap length 0:00:02.07

Peak level 100.0 %
Extraction speed 8.0 X
Track quality 100.0 %
Test CRC 62017C37
Copy CRC 62017C37
Cannot be verified as accurate (confidence 12) [E7BFB46A], AccurateRip returned [34CBECA3] (AR v2)
Copy OK


No tracks could be verified as accurate
You may have a different pressing from the one(s) in the database

No errors occurred

End of status report

==== Log checksum D35BA36735C583F28140A8C1FB1024EEDDB0096133B619CE6C16A5AD8A43B793 ====

––-

Exact Audio Copy V1.0 beta 3 from 29. August 2011

EAC extraction logfile from 28. August 2015, 16:18

Serge Gainsbourg / Histoire De Melody Nelson

Used drive : ATAPI iHBS212 2 Adapter: 3 ID: 0

Read mode : Secure
Utilize accurate stream : Yes
Defeat audio cache : Yes
Make use of C2 pointers : No

Read offset correction : 6
Overread into Lead-In and Lead-Out : No
Fill up missing offset samples with silence : Yes
Delete leading and trailing silent blocks : No
Null samples used in CRC calculations : Yes
Used interface : Native Win32 interface for Win NT & 2000
Gap handling : Appended to previous track

Used output format : User Defined Encoder
Selected bitrate : 128 kBit/s
Quality : High
Add ID3 tag : No
Command line compressor : C:\Program Files (x86)\Exact Audio Copy\Flac\flac.exe
Additional command line options : -8 -V -T "ARTIST=%artist%" -T "TITLE=%title%" -T "ALBUM=%albumtitle%" -T "DATE=%year%" -T "TRACKNUMBER=%tracknr%" -T "TOTALTRACKS=%numtracks%" -T "GENRE=%genre%" -T "ALBUMARTIST=%albumartist%" -T "ALBUM ARTIST=%albumartist%" -T "COMMENT=EAC Secure Mode, Test & Copy, AccurateRip, FLAC -8" %source%


TOC of the extracted CD

Track | Start | Length | Start sector | End sector
––––––––––––––––––––––––––––-
1 | 0:00.00 | 7:32.29 | 0 | 33928
2 | 7:32.29 | 2:00.43 | 33929 | 42971
3 | 9:32.72 | 1:31.60 | 42972 | 49856
4 | 11:04.57 | 1:47.68 | 49857 | 57949
5 | 12:52.50 | 4:05.72 | 57950 | 76396
6 | 16:58.47 | 3:25.48 | 76397 | 91819
7 | 20:24.20 | 7:36.48 | 91820 | 126067


Track 1

Filename C:\Users\Rob\Desktop\Uploads\Serge Gainsbourg - L'Essentiel Des Albums Studio 1958-1987 (2011) [FLAC] (14 Albums On 12 CDs)\1971 - Histoire De Melody Nelson\01 - Melody.wav

Pre-gap length 0:00:02.00

Peak level 99.8 %
Extraction speed 6.1 X
Track quality 100.0 %
Test CRC 7756325D
Copy CRC 7756325D
Cannot be verified as accurate (confidence 56) [46F40046], AccurateRip returned [0BB80CD5] (AR v2)
Copy OK

Track 2

Filename C:\Users\Rob\Desktop\Uploads\Serge Gainsbourg - L'Essentiel Des Albums Studio 1958-1987 (2011) [FLAC] (14 Albums On 12 CDs)\1971 - Histoire De Melody Nelson\02 - Ballade De Melody Nelson.wav

Pre-gap length 0:00:02.00

Peak level 100.0 %
Extraction speed 5.6 X
Track quality 100.0 %
Test CRC 764E07EC
Copy CRC 764E07EC
Cannot be verified as accurate (confidence 57) [569649E6], AccurateRip returned [DB74A13D] (AR v2)
Copy OK

Track 3

Filename C:\Users\Rob\Desktop\Uploads\Serge Gainsbourg - L'Essentiel Des Albums Studio 1958-1987 (2011) [FLAC] (14 Albums On 12 CDs)\1971 - Histoire De Melody Nelson\03 - Valse De Melody.wav

Peak level 97.1 %
Extraction speed 5.4 X
Track quality 100.0 %
Test CRC 4E9518C2
Copy CRC 4E9518C2
Cannot be verified as accurate (confidence 56) [D32A98AA], AccurateRip returned [9CFAEC38] (AR v2)
Copy OK

Track 4

Filename C:\Users\Rob\Desktop\Uploads\Serge Gainsbourg - L'Essentiel Des Albums Studio 1958-1987 (2011) [FLAC] (14 Albums On 12 CDs)\1971 - Histoire De Melody Nelson\04 - Ah Melody.wav

Peak level 92.1 %
Extraction speed 4.2 X
Track quality 99.9 %
Test CRC 29477F4C
Copy CRC 29477F4C
Cannot be verified as accurate (confidence 56) [71884D19], AccurateRip returned [4B2E12BD] (AR v2)
Copy OK

Track 5

Filename C:\Users\Rob\Desktop\Uploads\Serge Gainsbourg - L'Essentiel Des Albums Studio 1958-1987 (2011) [FLAC] (14 Albums On 12 CDs)\1971 - Histoire De Melody Nelson\05 - L'Hotel Particulier.wav

Pre-gap length 0:00:01.00

Peak level 97.5 %
Extraction speed 7.2 X
Track quality 100.0 %
Test CRC 31DF82F9
Copy CRC 31DF82F9
Cannot be verified as accurate (confidence 56) [E35771E9], AccurateRip returned [4AB2DADF] (AR v2)
Copy OK

Track 6

Filename C:\Users\Rob\Desktop\Uploads\Serge Gainsbourg - L'Essentiel Des Albums Studio 1958-1987 (2011) [FLAC] (14 Albums On 12 CDs)\1971 - Histoire De Melody Nelson\06 - En Melody.wav

Peak level 96.9 %
Extraction speed 7.4 X
Track quality 100.0 %
Test CRC 951D5D02
Copy CRC 951D5D02
Cannot be verified as accurate (confidence 56) [1E686C74], AccurateRip returned [6D569C39] (AR v2)
Copy OK

Track 7

Filename C:\Users\Rob\Desktop\Uploads\Serge Gainsbourg - L'Essentiel Des Albums Studio 1958-1987 (2011) [FLAC] (14 Albums On 12 CDs)\1971 - Histoire De Melody Nelson\07 - Cargo Culte.wav

Peak level 100.0 %
Extraction speed 8.7 X
Track quality 100.0 %
Test CRC A8B2ABBC
Copy CRC A8B2ABBC
Cannot be verified as accurate (confidence 56) [695EE9FD], AccurateRip returned [20584D5E] (AR v2)
Copy OK


No tracks could be verified as accurate
You may have a different pressing from the one(s) in the database

No errors occurred

End of status report

==== Log checksum 87DB583977EB2FD11B428741E56EBDD8C9FE52A28D2936E63F9DFA8531931E7E ====

––-

Exact Audio Copy V1.0 beta 3 from 29. August 2011

EAC extraction logfile from 28. August 2015, 16:41

Serge Gainsbourg / Vu De L'exterieur

Used drive : ATAPI iHBS212 2 Adapter: 3 ID: 0

Read mode : Secure
Utilize accurate stream : Yes
Defeat audio cache : Yes
Make use of C2 pointers : No

Read offset correction : 6
Overread into Lead-In and Lead-Out : No
Fill up missing offset samples with silence : Yes
Delete leading and trailing silent blocks : No
Null samples used in CRC calculations : Yes
Used interface : Native Win32 interface for Win NT & 2000
Gap handling : Appended to previous track

Used output format : User Defined Encoder
Selected bitrate : 128 kBit/s
Quality : High
Add ID3 tag : No
Command line compressor : C:\Program Files (x86)\Exact Audio Copy\Flac\flac.exe
Additional command line options : -8 -V -T "ARTIST=%artist%" -T "TITLE=%title%" -T "ALBUM=%albumtitle%" -T "DATE=%year%" -T "TRACKNUMBER=%tracknr%" -T "TOTALTRACKS=%numtracks%" -T "GENRE=%genre%" -T "ALBUMARTIST=%albumartist%" -T "ALBUM ARTIST=%albumartist%" -T "COMMENT=EAC Secure Mode, Test & Copy, AccurateRip, FLAC -8" %source%


TOC of the extracted CD

Track | Start | Length | Start sector | End sector
––––––––––––––––––––––––––––-
1 | 0:00.00 | 3:23.60 | 0 | 15284
2 | 3:23.60 | 3:40.57 | 15285 | 31841
3 | 7:04.42 | 2:41.14 | 31842 | 43930
4 | 9:45.56 | 2:28.02 | 43931 | 55032
5 | 12:13.58 | 2:55.12 | 55033 | 68169
6 | 15:08.70 | 2:57.62 | 68170 | 81506
7 | 18:06.57 | 2:24.31 | 81507 | 92337
8 | 20:31.13 | 3:01.30 | 92338 | 105942
9 | 23:32.43 | 1:45.18 | 105943 | 113835
10 | 25:17.61 | 3:01.71 | 113836 | 127481


Track 1

Filename C:\Users\Rob\Desktop\Uploads\Serge Gainsbourg - L'Essentiel Des Albums Studio 1958-1987 (2011) [FLAC] (14 Albums On 12 CDs)\1973 - Vue De L'Exterieur\01 - Je Suis Venu Te Dire Que Je M'en Vais.wav

Pre-gap length 0:00:02.00

Peak level 94.4 %
Extraction speed 5.3 X
Track quality 100.0 %
Test CRC AC8324A1
Copy CRC AC8324A1
Cannot be verified as accurate (confidence 11) [671FAFBA], AccurateRip returned [1ECF5EE4] (AR v2)
Copy OK

Track 2

Filename C:\Users\Rob\Desktop\Uploads\Serge Gainsbourg - L'Essentiel Des Albums Studio 1958-1987 (2011) [FLAC] (14 Albums On 12 CDs)\1973 - Vue De L'Exterieur\02 - Vu De L'exterieur.wav

Pre-gap length 0:00:04.00

Peak level 94.4 %
Extraction speed 4.8 X
Track quality 99.9 %
Test CRC 380E2784
Copy CRC 380E2784
Cannot be verified as accurate (confidence 11) [A31A3383], AccurateRip returned [8B267E6C] (AR v2)
Copy OK

Track 3

Filename C:\Users\Rob\Desktop\Uploads\Serge Gainsbourg - L'Essentiel Des Albums Studio 1958-1987 (2011) [FLAC] (14 Albums On 12 CDs)\1973 - Vue De L'Exterieur\03 - Panpan Cucul.wav

Pre-gap length 0:00:02.00

Peak level 100.0 %
Extraction speed 5.9 X
Track quality 100.0 %
Test CRC 02B98EE3
Copy CRC 02B98EE3
Cannot be verified as accurate (confidence 11) [862EB60B], AccurateRip returned [932BBA7C] (AR v2)
Copy OK

Track 4

Filename C:\Users\Rob\Desktop\Uploads\Serge Gainsbourg - L'Essentiel Des Albums Studio 1958-1987 (2011) [FLAC] (14 Albums On 12 CDs)\1973 - Vue De L'Exterieur\04 - Par Hasard Et Pas Rase.wav

Pre-gap length 0:00:01.00

Peak level 100.0 %
Extraction speed 4.7 X
Track quality 99.9 %
Test CRC B9D5BAF4
Copy CRC B9D5BAF4
Cannot be verified as accurate (confidence 11) [154E5C3A], AccurateRip returned [197ADC65] (AR v2)
Copy OK

Track 5

Filename C:\Users\Rob\Desktop\Uploads\Serge Gainsbourg - L'Essentiel Des Albums Studio 1958-1987 (2011) [FLAC] (14 Albums On 12 CDs)\1973 - Vue De L'Exterieur\05 - Des Vents Des Pets Des Poums.wav

Pre-gap length 0:00:01.74

Peak level 100.0 %
Extraction speed 6.6 X
Track quality 100.0 %
Test CRC 0403744E
Copy CRC 0403744E
Cannot be verified as accurate (confidence 11) [2BC47C2A], AccurateRip returned [76AA4E2B] (AR v2)
Copy OK

Track 6

Filename C:\Users\Rob\Desktop\Uploads\Serge Gainsbourg - L'Essentiel Des Albums Studio 1958-1987 (2011) [FLAC] (14 Albums On 12 CDs)\1973 - Vue De L'Exterieur\06 - Titicaca.wav

Pre-gap length 0:00:02.00

Peak level 100.0 %
Extraction speed 7.0 X
Track quality 100.0 %
Test CRC 954BBD0C
Copy CRC 954BBD0C
Cannot be verified as accurate (confidence 11) [7FBFD629], AccurateRip returned [CF18BEE3] (AR v2)
Copy OK

Track 7

Filename C:\Users\Rob\Desktop\Uploads\Serge Gainsbourg - L'Essentiel Des Albums Studio 1958-1987 (2011) [FLAC] (14 Albums On 12 CDs)\1973 - Vue De L'Exterieur\07 - Pamela Popo.wav

Pre-gap length 0:00:01.73

Peak level 100.0 %
Extraction speed 5.3 X
Track quality 99.9 %
Test CRC 73E527EC
Copy CRC 73E527EC
Cannot be verified as accurate (confidence 11) [466B856B], AccurateRip returned [71965E9C] (AR v2)
Copy OK

Track 8

Filename C:\Users\Rob\Desktop\Uploads\Serge Gainsbourg - L'Essentiel Des Albums Studio 1958-1987 (2011) [FLAC] (14 Albums On 12 CDs)\1973 - Vue De L'Exterieur\08 - La Poupee Qui Fait.wav

Pre-gap length 0:00:03.01

Peak level 100.0 %
Extraction speed 7.5 X
Track quality 100.0 %
Test CRC 30CF67EF
Copy CRC 30CF67EF
Cannot be verified as accurate (confidence 11) [1C6411F0], AccurateRip returned [A1FD3772] (AR v2)
Copy OK

Track 9

Filename C:\Users\Rob\Desktop\Uploads\Serge Gainsbourg - L'Essentiel Des Albums Studio 1958-1987 (2011) [FLAC] (14 Albums On 12 CDs)\1973 - Vue De L'Exterieur\09 - L'hippopodame.wav

Pre-gap length 0:00:02.00

Peak level 100.0 %
Extraction speed 4.9 X
Track quality 99.8 %
Test CRC EFA922CA
Copy CRC EFA922CA
Cannot be verified as accurate (confidence 11) [06891259], AccurateRip returned [19BEB154] (AR v2)
Copy OK

Track 10

Filename C:\Users\Rob\Desktop\Uploads\Serge Gainsbourg - L'Essentiel Des Albums Studio 1958-1987 (2011) [FLAC] (14 Albums On 12 CDs)\1973 - Vue De L'Exterieur\10 - Sensuelle Et Sans Suite.wav

Pre-gap length 0:00:03.00

Peak level 100.0 %
Extraction speed 6.3 X
Track quality 99.9 %
Test CRC E2FE7433
Copy CRC E2FE7433
Cannot be verified as accurate (confidence 11) [3F786869], AccurateRip returned [DA7E57F4] (AR v2)
Copy OK


No tracks could be verified as accurate
You may have a different pressing from the one(s) in the database

No errors occurred

End of status report

==== Log checksum 949721233EE0E6DF9B2A4B545734500D46708E2DC41CE42AA104D67692FB15F4 ====

––-

Exact Audio Copy V1.0 beta 3 from 29. August 2011

EAC extraction logfile from 28. August 2015, 18:03

Serge Gainsbourg / L'Homme A Tete De Chou

Used drive : ATAPI iHBS212 2 Adapter: 3 ID: 0

Read mode : Secure
Utilize accurate stream : Yes
Defeat audio cache : Yes
Make use of C2 pointers : No

Read offset correction : 6
Overread into Lead-In and Lead-Out : No
Fill up missing offset samples with silence : Yes
Delete leading and trailing silent blocks : No
Null samples used in CRC calculations : Yes
Used interface : Native Win32 interface for Win NT & 2000
Gap handling : Appended to previous track

Used output format : User Defined Encoder
Selected bitrate : 128 kBit/s
Quality : High
Add ID3 tag : No
Command line compressor : C:\Program Files (x86)\Exact Audio Copy\Flac\flac.exe
Additional command line options : -8 -V -T "ARTIST=%artist%" -T "TITLE=%title%" -T "ALBUM=%albumtitle%" -T "DATE=%year%" -T "TRACKNUMBER=%tracknr%" -T "TOTALTRACKS=%numtracks%" -T "GENRE=%genre%" -T "ALBUMARTIST=%albumartist%" -T "ALBUM ARTIST=%albumartist%" -T "COMMENT=EAC Secure Mode, Test & Copy, AccurateRip, FLAC -8" %source%


TOC of the extracted CD

Track | Start | Length | Start sector | End sector
––––––––––––––––––––––––––––-
1 | 0:00.00 | 2:59.65 | 0 | 13489
2 | 2:59.65 | 1:58.61 | 13490 | 22400
3 | 4:58.51 | 2:11.63 | 22401 | 32288
4 | 7:10.39 | 1:31.71 | 32289 | 39184
5 | 8:42.35 | 2:36.40 | 39185 | 50924
6 | 11:19.00 | 2:36.55 | 50925 | 62679
7 | 13:55.55 | 1:14.62 | 62680 | 68291
8 | 15:10.42 | 2:41.09 | 68292 | 80375
9 | 17:51.51 | 7:40.66 | 80376 | 114941
10 | 25:32.42 | 0:47.20 | 114942 | 118486
11 | 26:19.62 | 2:23.33 | 118487 | 129244
12 | 28:43.20 | 3:21.16 | 129245 | 144335


Track 1

Filename C:\Users\Rob\Desktop\Uploads\Serge Gainsbourg - L'Essentiel Des Albums Studio 1958-1987 (2011) [FLAC] (14 Albums On 12 CDs)\1976 - L'Homme A Tete De Chou\01 - L'Homme A Tete De Chou.wav

Pre-gap length 0:00:02.00

Peak level 100.0 %
Extraction speed 5.1 X
Track quality 100.0 %
Test CRC 284A4302
Copy CRC 284A4302
Cannot be verified as accurate (confidence 23) [87BFD1BE], AccurateRip returned [56C82C5B] (AR v2)
Copy OK

Track 2

Filename C:\Users\Rob\Desktop\Uploads\Serge Gainsbourg - L'Essentiel Des Albums Studio 1958-1987 (2011) [FLAC] (14 Albums On 12 CDs)\1976 - L'Homme A Tete De Chou\02 - Chez Max Coiffeur Pour Hommes.wav

Peak level 96.1 %
Extraction speed 5.1 X
Track quality 100.0 %
Test CRC 9819E695
Copy CRC 9819E695
Cannot be verified as accurate (confidence 23) [FFB7BDF3], AccurateRip returned [37DC35A2] (AR v2)
Copy OK

Track 3

Filename C:\Users\Rob\Desktop\Uploads\Serge Gainsbourg - L'Essentiel Des Albums Studio 1958-1987 (2011) [FLAC] (14 Albums On 12 CDs)\1976 - L'Homme A Tete De Chou\03 - Marilou Reggae.wav

Pre-gap length 0:00:02.00

Peak level 99.2 %
Extraction speed 5.4 X
Track quality 100.0 %
Test CRC 87FE2EEE
Copy CRC 87FE2EEE
Cannot be verified as accurate (confidence 23) [B5E0CE20], AccurateRip returned [AD3084AA] (AR v2)
Copy OK

Track 4

Filename C:\Users\Rob\Desktop\Uploads\Serge Gainsbourg - L'Essentiel Des Albums Studio 1958-1987 (2011) [FLAC] (14 Albums On 12 CDs)\1976 - L'Homme A Tete De Chou\04 - Transit A Marilou.wav

Pre-gap length 0:00:03.00

Peak level 89.2 %
Extraction speed 3.6 X
Track quality 99.8 %
Test CRC DA580047
Copy CRC DA580047
Cannot be verified as accurate (confidence 23) [D8912968], AccurateRip returned [0EBC01FF] (AR v2)
Copy OK

Track 5

Filename C:\Users\Rob\Desktop\Uploads\Serge Gainsbourg - L'Essentiel Des Albums Studio 1958-1987 (2011) [FLAC] (14 Albums On 12 CDs)\1976 - L'Homme A Tete De Chou\05 - Flash Forward.wav

Pre-gap length 0:00:02.00

Peak level 83.2 %
Extraction speed 6.1 X
Track quality 100.0 %
Test CRC BADC09F6
Copy CRC BADC09F6
Cannot be verified as accurate (confidence 23) [9E5AC9B0], AccurateRip returned [21525ECC] (AR v2)
Copy OK

Track 6

Filename C:\Users\Rob\Desktop\Uploads\Serge Gainsbourg - L'Essentiel Des Albums Studio 1958-1987 (2011) [FLAC] (14 Albums On 12 CDs)\1976 - L'Homme A Tete De Chou\06 - Aeroplanes.wav

Pre-gap length 0:00:03.00

Peak level 84.1 %
Extraction speed 6.4 X
Track quality 100.0 %
Test CRC 593FE7EB
Copy CRC 593FE7EB
Cannot be verified as accurate (confidence 23) [582BA8B8], AccurateRip returned [99A44AA2] (AR v2)
Copy OK

Track 7

Filename C:\Users\Rob\Desktop\Uploads\Serge Gainsbourg - L'Essentiel Des Albums Studio 1958-1987 (2011) [FLAC] (14 Albums On 12 CDs)\1976 - L'Homme A Tete De Chou\07 - Premiers Symptomes.wav

Pre-gap length 0:00:02.00

Peak level 73.0 %
Extraction speed 5.4 X
Track quality 100.0 %
Test CRC D550C156
Copy CRC D550C156
Cannot be verified as accurate (confidence 23) [A27CFF81], AccurateRip returned [9C6BEF78] (AR v2)
Copy OK

Track 8

Filename C:\Users\Rob\Desktop\Uploads\Serge Gainsbourg - L'Essentiel Des Albums Studio 1958-1987 (2011) [FLAC] (14 Albums On 12 CDs)\1976 - L'Homme A Tete De Chou\08 - Ma Lou Marilou.wav

Pre-gap length 0:00:02.00

Peak level 99.6 %
Extraction speed 6.8 X
Track quality 100.0 %
Test CRC B552F124
Copy CRC B552F124
Cannot be verified as accurate (confidence 23) [3A36B0C1], AccurateRip returned [FEE68E24] (AR v2)
Copy OK

Track 9

Filename C:\Users\Rob\Desktop\Uploads\Serge Gainsbourg - L'Essentiel Des Albums Studio 1958-1987 (2011) [FLAC] (14 Albums On 12 CDs)\1976 - L'Homme A Tete De Chou\09 - Variations Sur Marilou.wav

Pre-gap length 0:00:02.00

Peak level 100.0 %
Extraction speed 8.4 X
Track quality 100.0 %
Test CRC E9F7E6B8
Copy CRC E9F7E6B8
Cannot be verified as accurate (confidence 23) [74B38D1B], AccurateRip returned [07A1686A] (AR v2)
Copy OK

Track 10

Filename C:\Users\Rob\Desktop\Uploads\Serge Gainsbourg - L'Essentiel Des Albums Studio 1958-1987 (2011) [FLAC] (14 Albums On 12 CDs)\1976 - L'Homme A Tete De Chou\10 - Meurtre A L'Extincteur.wav

Pre-gap length 0:00:03.00

Peak level 90.4 %
Extraction speed 5.3 X
Track quality 100.0 %
Test CRC 0BE31788
Copy CRC 0BE31788
Cannot be verified as accurate (confidence 23) [0D5BD36F], AccurateRip returned [2AE86EE6] (AR v2)
Copy OK

Track 11

Filename C:\Users\Rob\Desktop\Uploads\Serge Gainsbourg - L'Essentiel Des Albums Studio 1958-1987 (2011) [FLAC] (14 Albums On 12 CDs)\1976 - L'Homme A Tete De Chou\11 - Marilou Sous La Neige.wav

Peak level 100.0 %
Extraction speed 5.9 X
Track quality 99.9 %
Test CRC FE2A355C
Copy CRC FE2A355C
Cannot be verified as accurate (confidence 23) [110DBB4F], AccurateRip returned [C0F4C633] (AR v2)
Copy OK

Track 12

Filename C:\Users\Rob\Desktop\Uploads\Serge Gainsbourg - L'Essentiel Des Albums Studio 1958-1987 (2011) [FLAC] (14 Albums On 12 CDs)\1976 - L'Homme A Tete De Chou\12 - Lunatic Asylum.wav

Pre-gap length 0:00:02.00

Peak level 98.6 %
Extraction speed 6.8 X
Track quality 99.9 %
Test CRC 505C3BAF
Copy CRC 505C3BAF
Cannot be verified as accurate (confidence 23) [07A26EEB], AccurateRip returned [D2069B27] (AR v2)
Copy OK


No tracks could be verified as accurate
You may have a different pressing from the one(s) in the database

No errors occurred

End of status report

==== Log checksum D156D1851C5C22AEC826A5B8F91FC4A3D6B8C3AF479832EE5BBA0C82DEF4E47B ====

––-

Exact Audio Copy V1.0 beta 3 from 29. August 2011

EAC extraction logfile from 28. August 2015, 18:19

Serge Gainsbourg / Aux Armes Et Caetera

Used drive : ATAPI iHBS212 2 Adapter: 3 ID: 0

Read mode : Secure
Utilize accurate stream : Yes
Defeat audio cache : Yes
Make use of C2 pointers : No

Read offset correction : 6
Overread into Lead-In and Lead-Out : No
Fill up missing offset samples with silence : Yes
Delete leading and trailing silent blocks : No
Null samples used in CRC calculations : Yes
Used interface : Native Win32 interface for Win NT & 2000
Gap handling : Appended to previous track

Used output format : User Defined Encoder
Selected bitrate : 128 kBit/s
Quality : High
Add ID3 tag : No
Command line compressor : C:\Program Files (x86)\Exact Audio Copy\Flac\flac.exe
Additional command line options : -8 -V -T "ARTIST=%artist%" -T "TITLE=%title%" -T "ALBUM=%albumtitle%" -T "DATE=%year%" -T "TRACKNUMBER=%tracknr%" -T "TOTALTRACKS=%numtracks%" -T "GENRE=%genre%" -T "ALBUMARTIST=%albumartist%" -T "ALBUM ARTIST=%albumartist%" -T "COMMENT=EAC Secure Mode, Test & Copy, AccurateRip, FLAC -8" %source%


TOC of the extracted CD

Track | Start | Length | Start sector | End sector
––––––––––––––––––––––––––––-
1 | 0:00.00 | 3:08.47 | 0 | 14146
2 | 3:08.47 | 3:06.43 | 14147 | 28139
3 | 6:15.15 | 2:10.35 | 28140 | 37924
4 | 8:25.50 | 2:37.42 | 37925 | 49741
5 | 11:03.17 | 1:58.10 | 49742 | 58601
6 | 13:01.27 | 3:02.13 | 58602 | 72264
7 | 16:03.40 | 3:41.67 | 72265 | 88906
8 | 19:45.32 | 2:31.58 | 88907 | 100289
9 | 22:17.15 | 3:55.05 | 100290 | 117919
10 | 26:12.20 | 0:36.70 | 117920 | 120689
11 | 26:49.15 | 2:37.27 | 120690 | 132491
12 | 29:26.42 | 3:48.60 | 132492 | 149651


Track 1

Filename C:\Users\Rob\Desktop\Uploads\Serge Gainsbourg - L'Essentiel Des Albums Studio 1958-1987 (2011) [FLAC] (14 Albums On 12 CDs)\1979 - Aux Armes Et Caetera\01 - Javanaise Remake.wav

Pre-gap length 0:00:02.00

Peak level 100.0 %
Extraction speed 5.2 X
Track quality 100.0 %
Test CRC 0F34A291
Copy CRC 0F34A291
Cannot be verified as accurate (confidence 20) [5CD3B5E3], AccurateRip returned [34F4BA27] (AR v2)
Copy OK

Track 2

Filename C:\Users\Rob\Desktop\Uploads\Serge Gainsbourg - L'Essentiel Des Albums Studio 1958-1987 (2011) [FLAC] (14 Albums On 12 CDs)\1979 - Aux Armes Et Caetera\02 - Aux Armes Et Caetera.wav

Pre-gap length 0:00:01.07

Peak level 100.0 %
Extraction speed 4.5 X
Track quality 99.9 %
Test CRC 5006967B
Copy CRC 5006967B
Cannot be verified as accurate (confidence 20) [E79BC259], AccurateRip returned [3B65653D] (AR v2)
Copy OK

Track 3

Filename C:\Users\Rob\Desktop\Uploads\Serge Gainsbourg - L'Essentiel Des Albums Studio 1958-1987 (2011) [FLAC] (14 Albums On 12 CDs)\1979 - Aux Armes Et Caetera\03 - Les Locataires.wav

Pre-gap length 0:00:00.50

Peak level 100.0 %
Extraction speed 4.2 X
Track quality 99.9 %
Test CRC 2649C3AF
Copy CRC 2649C3AF
Cannot be verified as accurate (confidence 20) [BF8DD571], AccurateRip returned [A202EF6F] (AR v2)
Copy OK

Track 4

Filename C:\Users\Rob\Desktop\Uploads\Serge Gainsbourg - L'Essentiel Des Albums Studio 1958-1987 (2011) [FLAC] (14 Albums On 12 CDs)\1979 - Aux Armes Et Caetera\04 - Des Laids Des Laids.wav

Pre-gap length 0:00:01.25

Peak level 100.0 %
Extraction speed 6.0 X
Track quality 100.0 %
Test CRC 1823DD16
Copy CRC 1823DD16
Cannot be verified as accurate (confidence 20) [5E139708], AccurateRip returned [52906B2B] (AR v2)
Copy OK

Track 5

Filename C:\Users\Rob\Desktop\Uploads\Serge Gainsbourg - L'Essentiel Des Albums Studio 1958-1987 (2011) [FLAC] (14 Albums On 12 CDs)\1979 - Aux Armes Et Caetera\05 - Brigade Des Stups.wav

Pre-gap length 0:00:00.55

Peak level 100.0 %
Extraction speed 6.0 X
Track quality 100.0 %
Test CRC 4248ADD8
Copy CRC 4248ADD8
Cannot be verified as accurate (confidence 20) [E13A4A7A], AccurateRip returned [7E7C266D] (AR v2)
Copy OK

Track 6

Filename C:\Users\Rob\Desktop\Uploads\Serge Gainsbourg - L'Essentiel Des Albums Studio 1958-1987 (2011) [FLAC] (14 Albums On 12 CDs)\1979 - Aux Armes Et Caetera\06 - Vieille Canaille.wav

Pre-gap length 0:00:00.35

Peak level 100.0 %
Extraction speed 6.8 X
Track quality 100.0 %
Test CRC C328DDF8
Copy CRC C328DDF8
Cannot be verified as accurate (confidence 21) [D1A2F869], AccurateRip returned [A25B3572] (AR v2)
Copy OK

Track 7

Filename C:\Users\Rob\Desktop\Uploads\Serge Gainsbourg - L'Essentiel Des Albums Studio 1958-1987 (2011) [FLAC] (14 Albums On 12 CDs)\1979 - Aux Armes Et Caetera\07 - Lola Rastaquouere.wav

Pre-gap length 0:00:00.45

Peak level 100.0 %
Extraction speed 7.3 X
Track quality 100.0 %
Test CRC 74620AED
Copy CRC 74620AED
Cannot be verified as accurate (confidence 21) [26E81E3F], AccurateRip returned [3D9F0B5C] (AR v2)
Copy OK

Track 8

Filename C:\Users\Rob\Desktop\Uploads\Serge Gainsbourg - L'Essentiel Des Albums Studio 1958-1987 (2011) [FLAC] (14 Albums On 12 CDs)\1979 - Aux Armes Et Caetera\08 - Relax Baby Be Cool.wav

Pre-gap length 0:00:00.12

Peak level 100.0 %
Extraction speed 7.3 X
Track quality 100.0 %
Test CRC 3CE8A23A
Copy CRC 3CE8A23A
Cannot be verified as accurate (confidence 20) [8D7E29E6], AccurateRip returned [AE649E32] (AR v2)
Copy OK

Track 9

Filename C:\Users\Rob\Desktop\Uploads\Serge Gainsbourg - L'Essentiel Des Albums Studio 1958-1987 (2011) [FLAC] (14 Albums On 12 CDs)\1979 - Aux Armes Et Caetera\09 - Daisy Temple.wav

Pre-gap length 0:00:00.73

Peak level 100.0 %
Extraction speed 6.7 X
Track quality 99.9 %
Test CRC A9EDD0A5
Copy CRC A9EDD0A5
Cannot be verified as accurate (confidence 20) [31A8528F], AccurateRip returned [B7EFA93F] (AR v2)
Copy OK

Track 10

Filename C:\Users\Rob\Desktop\Uploads\Serge Gainsbourg - L'Essentiel Des Albums Studio 1958-1987 (2011) [FLAC] (14 Albums On 12 CDs)\1979 - Aux Armes Et Caetera\10 - Eau Et Gaz A Tous Les Etages.wav

Pre-gap length 0:00:00.33

Peak level 100.0 %
Extraction speed 4.8 X
Track quality 100.0 %
Test CRC EE627A57
Copy CRC EE627A57
Cannot be verified as accurate (confidence 20) [633990FA], AccurateRip returned [86DFFE8F] (AR v2)
Copy OK

Track 11

Filename C:\Users\Rob\Desktop\Uploads\Serge Gainsbourg - L'Essentiel Des Albums Studio 1958-1987 (2011) [FLAC] (14 Albums On 12 CDs)\1979 - Aux Armes Et Caetera\11 - Pas Long Feu.wav

Peak level 100.0 %
Extraction speed 6.1 X
Track quality 99.9 %
Test CRC 7BE4C0DC
Copy CRC 7BE4C0DC
Cannot be verified as accurate (confidence 20) [1CC6BB8F], AccurateRip returned [5C6A7A5B] (AR v2)
Copy OK

Track 12

Filename C:\Users\Rob\Desktop\Uploads\Serge Gainsbourg - L'Essentiel Des Albums Studio 1958-1987 (2011) [FLAC] (14 Albums On 12 CDs)\1979 - Aux Armes Et Caetera\12 - Marilou Reggae Dub.wav

Pre-gap length 0:00:00.25

Peak level 100.0 %
Extraction speed 8.6 X
Track quality 100.0 %
Test CRC EDD2B655
Copy CRC EDD2B655
Cannot be verified as accurate (confidence 21) [9CE83D3B], AccurateRip returned [E709780B] (AR v2)
Copy OK


No tracks could be verified as accurate
You may have a different pressing from the one(s) in the database

No errors occurred

End of status report

==== Log checksum 9749584BE986DC3E55618D8917E77478DF63C5F70D9E2617F4BCF7C0CC867A78 ====

––-

Exact Audio Copy V1.0 beta 3 from 29. August 2011

EAC extraction logfile from 28. August 2015, 18:50

Serge Gainsbourg / Mauvaises Nouvelles Des Etoiles

Used drive : ATAPI iHBS212 2 Adapter: 3 ID: 0

Read mode : Secure
Utilize accurate stream : Yes
Defeat audio cache : Yes
Make use of C2 pointers : No

Read offset correction : 6
Overread into Lead-In and Lead-Out : No
Fill up missing offset samples with silence : Yes
Delete leading and trailing silent blocks : No
Null samples used in CRC calculations : Yes
Used interface : Native Win32 interface for Win NT & 2000
Gap handling : Not detected, thus appended to previous track

Used output format : User Defined Encoder
Selected bitrate : 128 kBit/s
Quality : High
Add ID3 tag : No
Command line compressor : C:\Program Files (x86)\Exact Audio Copy\Flac\flac.exe
Additional command line options : -8 -V -T "ARTIST=%artist%" -T "TITLE=%title%" -T "ALBUM=%albumtitle%" -T "DATE=%year%" -T "TRACKNUMBER=%tracknr%" -T "TOTALTRACKS=%numtracks%" -T "GENRE=%genre%" -T "ALBUMARTIST=%albumartist%" -T "ALBUM ARTIST=%albumartist%" -T "COMMENT=EAC Secure Mode, Test & Copy, AccurateRip, FLAC -8" %source%


TOC of the extracted CD

Track | Start | Length | Start sector | End sector
––––––––––––––––––––––––––––-
1 | 0:00.00 | 3:35.12 | 0 | 16136
2 | 3:35.12 | 3:18.15 | 16137 | 31001
3 | 6:53.27 | 2:32.45 | 31002 | 42446
4 | 9:25.72 | 3:09.70 | 42447 | 56691
5 | 12:35.67 | 2:45.60 | 56692 | 69126
6 | 15:21.52 | 2:03.45 | 69127 | 78396
7 | 17:25.22 | 3:21.65 | 78397 | 93536
8 | 20:47.12 | 3:04.30 | 93537 | 107366
9 | 23:51.42 | 2:53.00 | 107367 | 120341
10 | 26:44.42 | 3:04.00 | 120342 | 134141
11 | 29:48.42 | 2:55.40 | 134142 | 147306
12 | 32:44.07 | 1:28.58 | 147307 | 153964


Track 1

Filename C:\Users\Rob\Desktop\Uploads\Serge Gainsbourg - L'Essentiel Des Albums Studio 1958-1987 (2011) [FLAC] (14 Albums On 12 CDs)\1981 - Mauvaises Nouvelles Des Etoiles\01 - Overseas Telegram.wav

Peak level 100.0 %
Extraction speed 5.3 X
Track quality 100.0 %
Test CRC C01896AD
Copy CRC C01896AD
Cannot be verified as accurate (confidence 10) [7424BF44], AccurateRip returned [4C175D90] (AR v2)
Copy OK

Track 2

Filename C:\Users\Rob\Desktop\Uploads\Serge Gainsbourg - L'Essentiel Des Albums Studio 1958-1987 (2011) [FLAC] (14 Albums On 12 CDs)\1981 - Mauvaises Nouvelles Des Etoiles\02 - Ecce Homo.wav

Peak level 100.0 %
Extraction speed 4.7 X
Track quality 99.9 %
Test CRC 44A7FD69
Copy CRC 44A7FD69
Cannot be verified as accurate (confidence 10) [5518C9DE], AccurateRip returned [139971C2] (AR v2)
Copy OK

Track 3

Filename C:\Users\Rob\Desktop\Uploads\Serge Gainsbourg - L'Essentiel Des Albums Studio 1958-1987 (2011) [FLAC] (14 Albums On 12 CDs)\1981 - Mauvaises Nouvelles Des Etoiles\03 - Mickey Maousse.wav

Peak level 100.0 %
Extraction speed 5.9 X
Track quality 100.0 %
Test CRC CC54BD67
Copy CRC CC54BD67
Cannot be verified as accurate (confidence 10) [591C8973], AccurateRip returned [0A2F770B] (AR v2)
Copy OK

Track 4

Filename C:\Users\Rob\Desktop\Uploads\Serge Gainsbourg - L'Essentiel Des Albums Studio 1958-1987 (2011) [FLAC] (14 Albums On 12 CDs)\1981 - Mauvaises Nouvelles Des Etoiles\04 - Juif Et Dieu.wav

Peak level 100.0 %
Extraction speed 6.4 X
Track quality 100.0 %
Test CRC 545A336B
Copy CRC 545A336B
Cannot be verified as accurate (confidence 10) [E2021FC9], AccurateRip returned [29E310CA] (AR v2)
Copy OK

Track 5

Filename C:\Users\Rob\Desktop\Uploads\Serge Gainsbourg - L'Essentiel Des Albums Studio 1958-1987 (2011) [FLAC] (14 Albums On 12 CDs)\1981 - Mauvaises Nouvelles Des Etoiles\05 - Shush Shush Charlotte.wav

Peak level 100.0 %
Extraction speed 6.7 X
Track quality 100.0 %
Test CRC D94F18FC
Copy CRC D94F18FC
Cannot be verified as accurate (confidence 10) [34A65880], AccurateRip returned [5139044B] (AR v2)
Copy OK

Track 6

Filename C:\Users\Rob\Desktop\Uploads\Serge Gainsbourg - L'Essentiel Des Albums Studio 1958-1987 (2011) [FLAC] (14 Albums On 12 CDs)\1981 - Mauvaises Nouvelles Des Etoiles\06 - Toi Mourir.wav

Peak level 100.0 %
Extraction speed 6.5 X
Track quality 100.0 %
Test CRC 93A34931
Copy CRC 93A34931
Cannot be verified as accurate (confidence 10) [C0D3E537], AccurateRip returned [F303C288] (AR v2)
Copy OK

Track 7

Filename C:\Users\Rob\Desktop\Uploads\Serge Gainsbourg - L'Essentiel Des Albums Studio 1958-1987 (2011) [FLAC] (14 Albums On 12 CDs)\1981 - Mauvaises Nouvelles Des Etoiles\07 - La Nostalgie Camarade.wav

Peak level 100.0 %
Extraction speed 6.0 X
Track quality 99.9 %
Test CRC 8B3FF4F9
Copy CRC 8B3FF4F9
Cannot be verified as accurate (confidence 10) [7ED69CBD], AccurateRip returned [D29AFCF8] (AR v2)
Copy OK

Track 8

Filename C:\Users\Rob\Desktop\Uploads\Serge Gainsbourg - L'Essentiel Des Albums Studio 1958-1987 (2011) [FLAC] (14 Albums On 12 CDs)\1981 - Mauvaises Nouvelles Des Etoiles\08 - Bana Basadi Balalo.wav

Peak level 100.0 %
Extraction speed 7.6 X
Track quality 100.0 %
Test CRC 2291A3B6
Copy CRC 2291A3B6
Cannot be verified as accurate (confidence 10) [A3029EE0], AccurateRip returned [7D9CFDE0] (AR v2)
Copy OK

Track 9

Filename C:\Users\Rob\Desktop\Uploads\Serge Gainsbourg - L'Essentiel Des Albums Studio 1958-1987 (2011) [FLAC] (14 Albums On 12 CDs)\1981 - Mauvaises Nouvelles Des Etoiles\09 - Evguenie Sokolov.wav

Peak level 100.0 %
Extraction speed 6.1 X
Track quality 99.9 %
Test CRC 68F498D5
Copy CRC 68F498D5
Cannot be verified as accurate (confidence 10) [2D46CB49], AccurateRip returned [7F616013] (AR v2)
Copy OK

Track 10

Filename C:\Users\Rob\Desktop\Uploads\Serge Gainsbourg - L'Essentiel Des Albums Studio 1958-1987 (2011) [FLAC] (14 Albums On 12 CDs)\1981 - Mauvaises Nouvelles Des Etoiles\10 - Negusa Nagast.wav

Peak level 100.0 %
Extraction speed 8.2 X
Track quality 100.0 %
Test CRC 2279EAB1
Copy CRC 2279EAB1
Cannot be verified as accurate (confidence 10) [1046D9F8], AccurateRip returned [8001C9E0] (AR v2)
Copy OK

Track 11

Filename C:\Users\Rob\Desktop\Uploads\Serge Gainsbourg - L'Essentiel Des Albums Studio 1958-1987 (2011) [FLAC] (14 Albums On 12 CDs)\1981 - Mauvaises Nouvelles Des Etoiles\11 - Strike.wav

Peak level 100.0 %
Extraction speed 8.3 X
Track quality 100.0 %
Test CRC D0E827FC
Copy CRC D0E827FC
Cannot be verified as accurate (confidence 10) [9856F5E9], AccurateRip returned [76593706] (AR v2)
Copy OK

Track 12

Filename C:\Users\Rob\Desktop\Uploads\Serge Gainsbourg - L'Essentiel Des Albums Studio 1958-1987 (2011) [FLAC] (14 Albums On 12 CDs)\1981 - Mauvaises Nouvelles Des Etoiles\12 - Bad News From The Stars.wav

Peak level 100.0 %
Extraction speed 7.2 X
Track quality 100.0 %
Test CRC D9B5A36F
Copy CRC D9B5A36F
Cannot be verified as accurate (confidence 10) [A0D534C8], AccurateRip returned [436062D4] (AR v2)
Copy OK


No tracks could be verified as accurate
You may have a different pressing from the one(s) in the database

No errors occurred

End of status report

==== Log checksum DB25BBD773DEB190E3110B057D30897C734D1EED1826618E492E2FF8AC172A8D ====

––-

Exact Audio Copy V1.0 beta 3 from 29. August 2011

EAC extraction logfile from 28. August 2015, 19:06

Serge Gainsbourg / Love On The Beat

Used drive : ATAPI iHBS212 2 Adapter: 3 ID: 0

Read mode : Secure
Utilize accurate stream : Yes
Defeat audio cache : Yes
Make use of C2 pointers : No

Read offset correction : 6
Overread into Lead-In and Lead-Out : No
Fill up missing offset samples with silence : Yes
Delete leading and trailing silent blocks : No
Null samples used in CRC calculations : Yes
Used interface : Native Win32 interface for Win NT & 2000
Gap handling : Appended to previous track

Used output format : User Defined Encoder
Selected bitrate : 128 kBit/s
Quality : High
Add ID3 tag : No
Command line compressor : C:\Program Files (x86)\Exact Audio Copy\Flac\flac.exe
Additional command line options : -8 -V -T "ARTIST=%artist%" -T "TITLE=%title%" -T "ALBUM=%albumtitle%" -T "DATE=%year%" -T "TRACKNUMBER=%tracknr%" -T "TOTALTRACKS=%numtracks%" -T "GENRE=%genre%" -T "ALBUMARTIST=%albumartist%" -T "ALBUM ARTIST=%albumartist%" -T "COMMENT=EAC Secure Mode, Test & Copy, AccurateRip, FLAC -8" %source%


TOC of the extracted CD

Track | Start | Length | Start sector | End sector
––––––––––––––––––––––––––––-
1 | 0:00.00 | 8:04.37 | 0 | 36336
2 | 8:04.37 | 3:57.60 | 36337 | 54171
3 | 12:02.22 | 2:50.03 | 54172 | 66924
4 | 14:52.25 | 4:25.02 | 66925 | 86801
5 | 19:17.27 | 5:08.73 | 86802 | 109974
6 | 24:26.25 | 4:28.47 | 109975 | 130121
7 | 28:54.72 | 3:01.28 | 130122 | 143724
8 | 31:56.25 | 5:12.07 | 143725 | 167131


Track 1

Filename C:\Users\Rob\Desktop\Uploads\Serge Gainsbourg - L'Essentiel Des Albums Studio 1958-1987 (2011) [FLAC] (14 Albums On 12 CDs)\1984 - Love On The Beat\01 - Love On The Beat.wav

Pre-gap length 0:00:02.00

Peak level 100.0 %
Extraction speed 6.2 X
Track quality 100.0 %
Test CRC 41334C85
Copy CRC 41334C85
Cannot be verified as accurate (confidence 7) [C8EBADC9], AccurateRip returned [19AD7A8A] (AR v2)
Copy OK

Track 2

Filename C:\Users\Rob\Desktop\Uploads\Serge Gainsbourg - L'Essentiel Des Albums Studio 1958-1987 (2011) [FLAC] (14 Albums On 12 CDs)\1984 - Love On The Beat\02 - Sorry Angel.wav

Pre-gap length 0:00:01.40

Peak level 100.0 %
Extraction speed 6.6 X
Track quality 100.0 %
Test CRC 39F76F6B
Copy CRC 39F76F6B
Cannot be verified as accurate (confidence 7) [6A116C7A], AccurateRip returned [47E2040F] (AR v2)
Copy OK

Track 3

Filename C:\Users\Rob\Desktop\Uploads\Serge Gainsbourg - L'Essentiel Des Albums Studio 1958-1987 (2011) [FLAC] (14 Albums On 12 CDs)\1984 - Love On The Beat\03 - Hmm hmm hmm.wav

Pre-gap length 0:00:00.47

Peak level 100.0 %
Extraction speed 6.6 X
Track quality 100.0 %
Test CRC 7F881622
Copy CRC 7F881622
Cannot be verified as accurate (confidence 7) [3B3ADA44], AccurateRip returned [C190934F] (AR v2)
Copy OK

Track 4

Filename C:\Users\Rob\Desktop\Uploads\Serge Gainsbourg - L'Essentiel Des Albums Studio 1958-1987 (2011) [FLAC] (14 Albums On 12 CDs)\1984 - Love On The Beat\04 - Kiss Me Hardy.wav

Pre-gap length 0:00:00.60

Peak level 100.0 %
Extraction speed 7.5 X
Track quality 100.0 %
Test CRC A2C84A2C
Copy CRC A2C84A2C
Cannot be verified as accurate (confidence 7) [BA2EF001], AccurateRip returned [F6B57AEA] (AR v2)
Copy OK

Track 5

Filename C:\Users\Rob\Desktop\Uploads\Serge Gainsbourg - L'Essentiel Des Albums Studio 1958-1987 (2011) [FLAC] (14 Albums On 12 CDs)\1984 - Love On The Beat\05 - No Comment.wav

Pre-gap length 0:00:01.17

Peak level 100.0 %
Extraction speed 8.1 X
Track quality 100.0 %
Test CRC 3ADA53CF
Copy CRC 3ADA53CF
Cannot be verified as accurate (confidence 7) [1ADAA712], AccurateRip returned [E74DE7E9] (AR v2)
Copy OK

Track 6

Filename C:\Users\Rob\Desktop\Uploads\Serge Gainsbourg - L'Essentiel Des Albums Studio 1958-1987 (2011) [FLAC] (14 Albums On 12 CDs)\1984 - Love On The Beat\06 - I'm The Boy.wav

Pre-gap length 0:00:00.40

Peak level 100.0 %
Extraction speed 8.4 X
Track quality 100.0 %
Test CRC 33D7422F
Copy CRC 33D7422F
Cannot be verified as accurate (confidence 7) [18C54CA9], AccurateRip returned [60A16BBB] (AR v2)
Copy OK

Track 7

Filename C:\Users\Rob\Desktop\Uploads\Serge Gainsbourg - L'Essentiel Des Albums Studio 1958-1987 (2011) [FLAC] (14 Albums On 12 CDs)\1984 - Love On The Beat\07 - Harley David Son Of A Bitch.wav

Pre-gap length 0:00:00.47

Peak level 100.0 %
Extraction speed 8.3 X
Track quality 100.0 %
Test CRC 11805DFB
Copy CRC 11805DFB
Cannot be verified as accurate (confidence 7) [FC198C49], AccurateRip returned [514B7A81] (AR v2)
Copy OK

Track 8

Filename C:\Users\Rob\Desktop\Uploads\Serge Gainsbourg - L'Essentiel Des Albums Studio 1958-1987 (2011) [FLAC] (14 Albums On 12 CDs)\1984 - Love On The Beat\08 - Lemon Incest.wav

Pre-gap length 0:00:00.48

Peak level 100.0 %
Extraction speed 7.9 X
Track quality 99.9 %
Test CRC 087B93BB
Copy CRC 087B93BB
Cannot be verified as accurate (confidence 7) [E293D05A], AccurateRip returned [A61DC3D5] (AR v2)
Copy OK


No tracks could be verified as accurate
You may have a different pressing from the one(s) in the database

No errors occurred

End of status report

==== Log checksum 60473E11FCF70DAA762C1788A875FFEAB47E4F4FC011AC75BBE8A36EE5F873D1 ====

––-

Exact Audio Copy V1.0 beta 3 from 29. August 2011

EAC extraction logfile from 28. August 2015, 19:44

Serge Gainsbourg / You're Under Arrest

Used drive : ATAPI iHBS212 2 Adapter: 3 ID: 0

Read mode : Secure
Utilize accurate stream : Yes
Defeat audio cache : Yes
Make use of C2 pointers : No

Read offset correction : 6
Overread into Lead-In and Lead-Out : No
Fill up missing offset samples with silence : Yes
Delete leading and trailing silent blocks : No
Null samples used in CRC calculations : Yes
Used interface : Native Win32 interface for Win NT & 2000
Gap handling : Not detected, thus appended to previous track

Used output format : User Defined Encoder
Selected bitrate : 128 kBit/s
Quality : High
Add ID3 tag : No
Command line compressor : C:\Program Files (x86)\Exact Audio Copy\Flac\flac.exe
Additional command line options : -8 -V -T "ARTIST=%artist%" -T "TITLE=%title%" -T "ALBUM=%albumtitle%" -T "DATE=%year%" -T "TRACKNUMBER=%tracknr%" -T "TOTALTRACKS=%numtracks%" -T "GENRE=%genre%" -T "ALBUMARTIST=%albumartist%" -T "ALBUM ARTIST=%albumartist%" -T "COMMENT=EAC Secure Mode, Test & Copy, AccurateRip, FLAC -8" %source%


TOC of the extracted CD

Track | Start | Length | Start sector | End sector
––––––––––––––––––––––––––––-
1 | 0:00.00 | 4:12.42 | 0 | 18941
2 | 4:12.42 | 3:28.23 | 18942 | 34564
3 | 7:40.65 | 3:24.55 | 34565 | 49919
4 | 11:05.45 | 3:45.70 | 49920 | 66864
5 | 14:51.40 | 3:44.36 | 66865 | 83700
6 | 18:36.01 | 4:06.27 | 83701 | 102177
7 | 22:42.28 | 4:00.47 | 102178 | 120224
8 | 26:43.00 | 3:38.43 | 120225 | 136617
9 | 30:21.43 | 2:53.35 | 136618 | 149627
10 | 33:15.03 | 5:34.05 | 149628 | 174682


Track 1

Filename C:\Users\Rob\Desktop\Uploads\Serge Gainsbourg - L'Essentiel Des Albums Studio 1958-1987 (2011) [FLAC] (14 Albums On 12 CDs)\1987 - You're Under Arrest\01 - You're Under Arrest.wav

Peak level 91.1 %
Extraction speed 5.5 X
Track quality 100.0 %
Test CRC 382B4956
Copy CRC 382B4956
Cannot be verified as accurate (confidence 10) [7A8B3BA2], AccurateRip returned [9AF0E833] (AR v2)
Copy OK

Track 2

Filename C:\Users\Rob\Desktop\Uploads\Serge Gainsbourg - L'Essentiel Des Albums Studio 1958-1987 (2011) [FLAC] (14 Albums On 12 CDs)\1987 - You're Under Arrest\02 - Five Easy Pisseuses.wav

Peak level 92.5 %
Extraction speed 5.9 X
Track quality 100.0 %
Test CRC 44AC841C
Copy CRC 44AC841C
Cannot be verified as accurate (confidence 10) [D15BF79F], AccurateRip returned [0DD2B373] (AR v2)
Copy OK

Track 3

Filename C:\Users\Rob\Desktop\Uploads\Serge Gainsbourg - L'Essentiel Des Albums Studio 1958-1987 (2011) [FLAC] (14 Albums On 12 CDs)\1987 - You're Under Arrest\03 - Baille Baille Samantha.wav

Peak level 90.7 %
Extraction speed 6.3 X
Track quality 100.0 %
Test CRC 3C873513
Copy CRC 3C873513
Cannot be verified as accurate (confidence 10) [410A0C94], AccurateRip returned [DFD49C38] (AR v2)
Copy OK

Track 4

Filename C:\Users\Rob\Desktop\Uploads\Serge Gainsbourg - L'Essentiel Des Albums Studio 1958-1987 (2011) [FLAC] (14 Albums On 12 CDs)\1987 - You're Under Arrest\04 - Suck Baby Suck.wav

Peak level 90.7 %
Extraction speed 6.9 X
Track quality 100.0 %
Test CRC BCF270E5
Copy CRC BCF270E5
Cannot be verified as accurate (confidence 10) [508840CE], AccurateRip returned [7C91A792] (AR v2)
Copy OK

Track 5

Filename C:\Users\Rob\Desktop\Uploads\Serge Gainsbourg - L'Essentiel Des Albums Studio 1958-1987 (2011) [FLAC] (14 Albums On 12 CDs)\1987 - You're Under Arrest\05 - Glommy Sunday.wav

Peak level 85.6 %
Extraction speed 7.3 X
Track quality 100.0 %
Test CRC 756353F9
Copy CRC 756353F9
Cannot be verified as accurate (confidence 10) [C473813D], AccurateRip returned [311FCEA8] (AR v2)
Copy OK

Track 6

Filename C:\Users\Rob\Desktop\Uploads\Serge Gainsbourg - L'Essentiel Des Albums Studio 1958-1987 (2011) [FLAC] (14 Albums On 12 CDs)\1987 - You're Under Arrest\06 - Aux Enfants De La Chance.wav

Peak level 88.6 %
Extraction speed 7.7 X
Track quality 100.0 %
Test CRC 2B4E1F53
Copy CRC 2B4E1F53
Cannot be verified as accurate (confidence 10) [575B3DD2], AccurateRip returned [31A48152] (AR v2)
Copy OK

Track 7

Filename C:\Users\Rob\Desktop\Uploads\Serge Gainsbourg - L'Essentiel Des Albums Studio 1958-1987 (2011) [FLAC] (14 Albums On 12 CDs)\1987 - You're Under Arrest\07 - Shotgun.wav

Peak level 81.9 %
Extraction speed 8.1 X
Track quality 100.0 %
Test CRC C340EFE4
Copy CRC C340EFE4
Cannot be verified as accurate (confidence 10) [34B09D76], AccurateRip returned [37481575] (AR v2)
Copy OK

Track 8

Filename C:\Users\Rob\Desktop\Uploads\Serge Gainsbourg - L'Essentiel Des Albums Studio 1958-1987 (2011) [FLAC] (14 Albums On 12 CDs)\1987 - You're Under Arrest\08 - Glass Securit.wav

Peak level 85.7 %
Extraction speed 8.5 X
Track quality 100.0 %
Test CRC 199965ED
Copy CRC 199965ED
Cannot be verified as accurate (confidence 10) [2C10B15B], AccurateRip returned [6778DA73] (AR v2)
Copy OK

Track 9

Filename C:\Users\Rob\Desktop\Uploads\Serge Gainsbourg - L'Essentiel Des Albums Studio 1958-1987 (2011) [FLAC] (14 Albums On 12 CDs)\1987 - You're Under Arrest\09 - Dispatch Box.wav

Peak level 88.2 %
Extraction speed 8.4 X
Track quality 100.0 %
Test CRC 3AE5343E
Copy CRC 3AE5343E
Cannot be verified as accurate (confidence 10) [5572079A], AccurateRip returned [DDF3333E] (AR v2)
Copy OK

Track 10

Filename C:\Users\Rob\Desktop\Uploads\Serge Gainsbourg - L'Essentiel Des Albums Studio 1958-1987 (2011) [FLAC] (14 Albums On 12 CDs)\1987 - You're Under Arrest\10 - Mon Legionnaire.wav

Peak level 95.3 %
Extraction speed 9.6 X
Track quality 100.0 %
Test CRC CFA796FD
Copy CRC CFA796FD
Cannot be verified as accurate (confidence 10) [813EA188], AccurateRip returned [FC05784F] (AR v2)
Copy OK


No tracks could be verified as accurate
You may have a different pressing from the one(s) in the database

No errors occurred

End of status report

==== Log checksum 7B57D2D655777A3AA0301E7BB2465E4F87786B7F963C5845D6C131D0B2CFE807 ====



Serge Gainsbourg - L'Essentiel Des Albums Studio 1958-1987 (2011) {Mercury 277 162-7 - 14 Albums On 12 CDs}



===