Subcategories

Sonny Stitt & Hank Jones - The Complete Original Quartet Recordings (1955-1962/2005)

Posted By: Domestos
Sonny Stitt & Hank Jones - The Complete Original Quartet Recordings (1955-1962/2005)

Sonny Stitt & Hank Jones - The Complete Original Quartet Recordings (1955-1962/2005)
XLD Rip | FLAC (tracks+.cue, log) ~ 397.91 Mb | 79:42 | Covers
Bop | Country: USA | Label: Lone Hill Jazz - LHJ10169

Two of Sonny Stitts finest sessions in a quartet setting with the illustrious pianist Hank Jones. Jones delicate piano accompaniment and tastefully sparse solos mark the perfect complement to Stitts dazzling virtuosic display. Both sessions boast exceptional rhythm sections with Tommy Potter and Roy Haynes expertly holding down the bass and drum chairs for the Stitt In Orbit session and Wendell Marshall and Shadow Wilson swinging away on all of the exciting material from the album Sonny Stitt and the New Yorkers. The two different dates also include eight original Stitt compositions and feature the leader on both tenor and alto saxophone. An outstanding release by saxophone virtuoso Sonny Stitt.

Track List:
01. Afterwards (3:18)
02. If I Should Lose You (4:19)
03. Blues for Bobby (4:51)
04. My Melancholy Baby (5:42)
05. Cherokee (4:11)
06. Engos, The Bloos (3:44)
07. Body and Soul (3:54)
08. I Didn't Know What Time It Was (4:34)
09. The Best Things in Life Are Free (5:02)
10. People Will Say We're in Love (5:09)
11. Bloosey (3:51)
12. Bird's Eye (4:21)
13. It Might as Well Be Spring (5:04)
14. Fine and Frisky (4:58)
15. No Cal (2:42)
16. Corn Flakes (3:33)
17. Eye Ball (5:05)
18. Saginaw (5:24)

#1-4:
Sonny Stitt - alto saxophone
Hank Jones - piano
Wendell Marshall - bass
Shadow Wilson - drums
New York, December 16, 1955.
#5-13:
Same personnel as #1-4
New York, August 30, 1957.
#14-18:
Sonny Stitt - alto saxophone, tenor saxophone
Hank Jones - piano
Tommy Potter - bass
Roy Haynes - drums
New York, February - June, 1962.

Sonny Stitt & Hank Jones - The Complete Original Quartet Recordings (1955-1962/2005)

X Lossless Decoder version 20160920 (149.2)

XLD extraction logfile from 2018-04-16 18:43:02 +0200

Sonny Stitt & Hank Jones / The Complete Original Quartet Recordings

Used drive : HL-DT-ST DVDRW GX40N (revision RQ00)
Media type : Pressed CD

Ripper mode : XLD Secure Ripper
Disable audio cache : OK for the drive with a cache less than 1375KiB
Make use of C2 pointers : NO
Read offset correction : 6
Max retry count : 20
Gap status : Analyzed, Appended (except HTOA)

TOC of the extracted CD
Track | Start | Length | Start sector | End sector
––––––––––––––––––––––––––––-
1 | 00:00:00 | 03:17:45 | 0 | 14819
2 | 03:17:45 | 04:19:00 | 14820 | 34244
3 | 07:36:45 | 04:51:20 | 34245 | 56089
4 | 12:27:65 | 05:42:30 | 56090 | 81769
5 | 18:10:20 | 04:11:10 | 81770 | 100604
6 | 22:21:30 | 03:43:50 | 100605 | 117379
7 | 26:05:05 | 03:54:00 | 117380 | 134929
8 | 29:59:05 | 04:33:55 | 134930 | 155459
9 | 34:32:60 | 05:01:60 | 155460 | 178094
10 | 39:34:45 | 05:09:05 | 178095 | 201274
11 | 44:43:50 | 03:51:05 | 201275 | 218604
12 | 48:34:55 | 04:20:55 | 218605 | 238159
13 | 52:55:35 | 05:03:65 | 238160 | 260949
14 | 57:59:25 | 04:58:15 | 260950 | 283314
15 | 62:57:40 | 02:41:65 | 283315 | 295454
16 | 65:39:30 | 03:32:65 | 295455 | 311419
17 | 69:12:20 | 05:05:15 | 311420 | 334309
18 | 74:17:35 | 05:23:67 | 334310 | 358601

AccurateRip Summary (DiscID: 0033817f-02b0c522-2612ad12)
Track 01 : OK (v1+v2, confidence 5/5)
Track 02 : OK (v1+v2, confidence 5/5)
Track 03 : OK (v1+v2, confidence 5/5)
Track 04 : OK (v1+v2, confidence 5/5)
Track 05 : OK (v1+v2, confidence 5/5)
Track 06 : OK (v1+v2, confidence 5/5)
Track 07 : OK (v1+v2, confidence 5/5)
Track 08 : OK (v1+v2, confidence 5/5)
Track 09 : OK (v1+v2, confidence 5/5)
Track 10 : OK (v1+v2, confidence 5/5)
Track 11 : OK (v1+v2, confidence 5/5)
Track 12 : OK (v1+v2, confidence 5/5)
Track 13 : OK (v1+v2, confidence 5/5)
Track 14 : OK (v1+v2, confidence 5/5)
Track 15 : OK (v1+v2, confidence 5/5)
Track 16 : OK (v1+v2, confidence 5/5)
Track 17 : OK (v1+v2, confidence 5/5)
Track 18 : OK (v1+v2, confidence 5/5)
->All tracks accurately ripped.

All Tracks
Album gain : -5.06 dB
Peak : 1.000000
Statistics
Read error : 0
Jitter error (maybe fixed) : 0
Retry sector count : 0
Damaged sector count : 0

Track 01
Filename : /rips/Sonny Stitt & Hank Jones - The Complete Original Quartet Recordings (2005) [FLAC]/01 Afterwards.flac
Pre-gap length : 00:02:00

Track gain : -5.96 dB
Peak : 1.000000
CRC32 hash (test run) : 70FA1800
CRC32 hash : 70FA1800
CRC32 hash (skip zero) : 313271F9
AccurateRip v1 signature : 18F479DD
AccurateRip v2 signature : 7FBD2BF2
->Accurately ripped (v1+v2, confidence 2+3/5)
Statistics
Read error : 0
Jitter error (maybe fixed) : 0
Retry sector count : 0
Damaged sector count : 0

Track 02
Filename : /rips/Sonny Stitt & Hank Jones - The Complete Original Quartet Recordings (2005) [FLAC]/02 If I Should Lose You.flac

Track gain : -6.30 dB
Peak : 0.943420
CRC32 hash (test run) : 5674B795
CRC32 hash : 5674B795
CRC32 hash (skip zero) : 0EECF8AB
AccurateRip v1 signature : 7795A256
AccurateRip v2 signature : 2094E2DA
->Accurately ripped (v1+v2, confidence 2+3/5)
Statistics
Read error : 0
Jitter error (maybe fixed) : 0
Retry sector count : 0
Damaged sector count : 0

Track 03
Filename : /rips/Sonny Stitt & Hank Jones - The Complete Original Quartet Recordings (2005) [FLAC]/03 Blues for Bobby.flac

Track gain : -5.94 dB
Peak : 0.960388
CRC32 hash (test run) : B0203DB2
CRC32 hash : B0203DB2
CRC32 hash (skip zero) : 95193A09
AccurateRip v1 signature : 7F11B9E9
AccurateRip v2 signature : 6C677571
->Accurately ripped (v1+v2, confidence 2+3/5)
Statistics
Read error : 0
Jitter error (maybe fixed) : 0
Retry sector count : 0
Damaged sector count : 0

Track 04
Filename : /rips/Sonny Stitt & Hank Jones - The Complete Original Quartet Recordings (2005) [FLAC]/04 My Melancholy Baby.flac

Track gain : -5.65 dB
Peak : 0.955841
CRC32 hash (test run) : 07584C79
CRC32 hash : 07584C79
CRC32 hash (skip zero) : 9590BEAA
AccurateRip v1 signature : 97A62BF9
AccurateRip v2 signature : DC7CDD1C
->Accurately ripped (v1+v2, confidence 2+3/5)
Statistics
Read error : 0
Jitter error (maybe fixed) : 0
Retry sector count : 0
Damaged sector count : 0

Track 05
Filename : /rips/Sonny Stitt & Hank Jones - The Complete Original Quartet Recordings (2005) [FLAC]/05 Cherokee.flac

Track gain : -6.50 dB
Peak : 0.923737
CRC32 hash (test run) : D6B2931B
CRC32 hash : D6B2931B
CRC32 hash (skip zero) : D66F2AFC
AccurateRip v1 signature : A135C237
AccurateRip v2 signature : 14DDA925
->Accurately ripped (v1+v2, confidence 2+3/5)
Statistics
Read error : 0
Jitter error (maybe fixed) : 0
Retry sector count : 0
Damaged sector count : 0

Track 06
Filename : /rips/Sonny Stitt & Hank Jones - The Complete Original Quartet Recordings (2005) [FLAC]/06 Engos, The Bloos.flac

Track gain : -6.03 dB
Peak : 0.946930
CRC32 hash (test run) : 3A44987D
CRC32 hash : 3A44987D
CRC32 hash (skip zero) : B5E629D8
AccurateRip v1 signature : 7CD4E523
AccurateRip v2 signature : 8C315349
->Accurately ripped (v1+v2, confidence 2+3/5)
Statistics
Read error : 0
Jitter error (maybe fixed) : 0
Retry sector count : 0
Damaged sector count : 0

Track 07
Filename : /rips/Sonny Stitt & Hank Jones - The Complete Original Quartet Recordings (2005) [FLAC]/07 Body And Soul.flac

Track gain : -6.73 dB
Peak : 0.897736
CRC32 hash (test run) : C69AF402
CRC32 hash : C69AF402
CRC32 hash (skip zero) : 6BE8DB7A
AccurateRip v1 signature : 82F414D0
AccurateRip v2 signature : 295F6FF5
->Accurately ripped (v1+v2, confidence 2+3/5)
Statistics
Read error : 0
Jitter error (maybe fixed) : 0
Retry sector count : 0
Damaged sector count : 0

Track 08
Filename : /rips/Sonny Stitt & Hank Jones - The Complete Original Quartet Recordings (2005) [FLAC]/08 I Didn't Know What Time It Was.flac

Track gain : -5.52 dB
Peak : 0.915222
CRC32 hash (test run) : 1777F461
CRC32 hash : 1777F461
CRC32 hash (skip zero) : 520D49FC
AccurateRip v1 signature : 5398DD55
AccurateRip v2 signature : 20E26F93
->Accurately ripped (v1+v2, confidence 2+3/5)
Statistics
Read error : 0
Jitter error (maybe fixed) : 0
Retry sector count : 0
Damaged sector count : 0

Track 09
Filename : /rips/Sonny Stitt & Hank Jones - The Complete Original Quartet Recordings (2005) [FLAC]/09 The Best Things In Life Are Free.flac

Track gain : -1.80 dB
Peak : 0.850128
CRC32 hash (test run) : 0100AB3A
CRC32 hash : 0100AB3A
CRC32 hash (skip zero) : BF14C637
AccurateRip v1 signature : B603FF6B
AccurateRip v2 signature : 90515BF0
->Accurately ripped (v1+v2, confidence 2+3/5)
Statistics
Read error : 0
Jitter error (maybe fixed) : 0
Retry sector count : 0
Damaged sector count : 0

Track 10
Filename : /rips/Sonny Stitt & Hank Jones - The Complete Original Quartet Recordings (2005) [FLAC]/10 People Will Say We're In Love.flac

Track gain : -4.56 dB
Peak : 0.852631
CRC32 hash (test run) : E824CBAE
CRC32 hash : E824CBAE
CRC32 hash (skip zero) : FFA0E9CC
AccurateRip v1 signature : 4D1C2DC8
AccurateRip v2 signature : 8C93A8F1
->Accurately ripped (v1+v2, confidence 2+3/5)
Statistics
Read error : 0
Jitter error (maybe fixed) : 0
Retry sector count : 0
Damaged sector count : 0

Track 11
Filename : /rips/Sonny Stitt & Hank Jones - The Complete Original Quartet Recordings (2005) [FLAC]/11 Bloosey.flac

Track gain : -5.21 dB
Peak : 0.897827
CRC32 hash (test run) : 4B092C41
CRC32 hash : 4B092C41
CRC32 hash (skip zero) : FEDBAA7F
AccurateRip v1 signature : 45EE6439
AccurateRip v2 signature : F91212EE
->Accurately ripped (v1+v2, confidence 2+3/5)
Statistics
Read error : 0
Jitter error (maybe fixed) : 0
Retry sector count : 0
Damaged sector count : 0

Track 12
Filename : /rips/Sonny Stitt & Hank Jones - The Complete Original Quartet Recordings (2005) [FLAC]/12 Bird's Eye.flac

Track gain : -5.91 dB
Peak : 0.927307
CRC32 hash (test run) : 72925BA1
CRC32 hash : 72925BA1
CRC32 hash (skip zero) : 72B252B5
AccurateRip v1 signature : 2D04F9C8
AccurateRip v2 signature : 26A55E10
->Accurately ripped (v1+v2, confidence 2+3/5)
Statistics
Read error : 0
Jitter error (maybe fixed) : 0
Retry sector count : 0
Damaged sector count : 0

Track 13
Filename : /rips/Sonny Stitt & Hank Jones - The Complete Original Quartet Recordings (2005) [FLAC]/13 It Might As Well Be Spring.flac

Track gain : -4.89 dB
Peak : 0.889893
CRC32 hash (test run) : D057E233
CRC32 hash : D057E233
CRC32 hash (skip zero) : D40A5079
AccurateRip v1 signature : B9445AD4
AccurateRip v2 signature : 4D2F1322
->Accurately ripped (v1+v2, confidence 2+3/5)
Statistics
Read error : 0
Jitter error (maybe fixed) : 0
Retry sector count : 0
Damaged sector count : 0

Track 14
Filename : /rips/Sonny Stitt & Hank Jones - The Complete Original Quartet Recordings (2005) [FLAC]/14 Fine And Frisky.flac

Track gain : -1.42 dB
Peak : 0.822296
CRC32 hash (test run) : 7AF646A8
CRC32 hash : 7AF646A8
CRC32 hash (skip zero) : A362E4C9
AccurateRip v1 signature : A82E4EE3
AccurateRip v2 signature : 274FBEEF
->Accurately ripped (v1+v2, confidence 2+3/5)
Statistics
Read error : 0
Jitter error (maybe fixed) : 0
Retry sector count : 0
Damaged sector count : 0

Track 15
Filename : /rips/Sonny Stitt & Hank Jones - The Complete Original Quartet Recordings (2005) [FLAC]/15 No Cal.flac

Track gain : -1.83 dB
Peak : 0.908081
CRC32 hash (test run) : FFADE60E
CRC32 hash : FFADE60E
CRC32 hash (skip zero) : 54EA9DA3
AccurateRip v1 signature : 43AB1037
AccurateRip v2 signature : 17BE529F
->Accurately ripped (v1+v2, confidence 2+3/5)
Statistics
Read error : 0
Jitter error (maybe fixed) : 0
Retry sector count : 0
Damaged sector count : 0

Track 16
Filename : /rips/Sonny Stitt & Hank Jones - The Complete Original Quartet Recordings (2005) [FLAC]/16 Corn Flakes.flac

Track gain : -1.12 dB
Peak : 0.904022
CRC32 hash (test run) : 15689E06
CRC32 hash : 15689E06
CRC32 hash (skip zero) : 4D40D495
AccurateRip v1 signature : E817F1ED
AccurateRip v2 signature : 9C291E2E
->Accurately ripped (v1+v2, confidence 2+3/5)
Statistics
Read error : 0
Jitter error (maybe fixed) : 0
Retry sector count : 0
Damaged sector count : 0

Track 17
Filename : /rips/Sonny Stitt & Hank Jones - The Complete Original Quartet Recordings (2005) [FLAC]/17 Eye Ball.flac

Track gain : -2.96 dB
Peak : 0.909698
CRC32 hash (test run) : B8463B15
CRC32 hash : B8463B15
CRC32 hash (skip zero) : D396C73A
AccurateRip v1 signature : 7BE0A103
AccurateRip v2 signature : 0D233750
->Accurately ripped (v1+v2, confidence 2+3/5)
Statistics
Read error : 0
Jitter error (maybe fixed) : 0
Retry sector count : 0
Damaged sector count : 0

Track 18
Filename : /rips/Sonny Stitt & Hank Jones - The Complete Original Quartet Recordings (2005) [FLAC]/18 Saginaw.flac

Track gain : -2.52 dB
Peak : 0.919769
CRC32 hash (test run) : 653B68C1
CRC32 hash : 653B68C1
CRC32 hash (skip zero) : 49B3D863
AccurateRip v1 signature : 76A33108
AccurateRip v2 signature : 2D54E8C8
->Accurately ripped (v1+v2, confidence 2+3/5)
Statistics
Read error : 0
Jitter error (maybe fixed) : 0
Retry sector count : 0
Damaged sector count : 0

No errors occurred

End of status report

––-BEGIN XLD SIGNATURE––-
17WVCam3UQ57hycJy9MKU6YaKSOcEjfsM6TZXxftZ5Io5jAFvb0kBxT.LEkjhqcdCC8vzeenBUPskSZKAu6UVM9D6VzOsCcKl_tkTSS
––-END XLD SIGNATURE––-

All thanks go to the jazzambazzador

More Music in My Blog
Follow My RSS Channel