Galina Ustvolskaya - Kopatchinskaja, Hinterhauser, Bieri (2014) {ECM New Series 2329}

Posted By: ruskaval
Galina Ustvolskaya - Kopatchinskaja, Hinterhauser, Bieri (2014) {ECM New Series 2329}

Galina Ustvolskaya - Kopatchinskaja, Hinterhauser, Bieri (2014) {ECM New Series 2329}
EAC rip (secure mode) | FLAC (tracks)+CUE+LOG -> 222 Mb | MP3 @320 -> 162 Mb
Full Artwork @ 300 dpi (png) -> 29 Mb | 5% repair rar
© 2014 ECM Records | ECM New Series 2329 / 481 0883
Classical / Modern Classical / Chamber Music / Piano / Violin / Clarinet

The unique expressiveness of the work of Galina Ustvolskaya (1919-2006) speaks to the listener with directness and nuanced layers of sound, the powerful, rhythmic stringency of the music testifying to the relentlessness of her vision. Fiercely independent, Ustvolskaya maintained that her music sounded like the work of no other composer, living or dead, and put herself outside all stylistic “schools”. Her work, said Viktor Suslin, has the "narrowness of a laser beam capable of piercing metal."

Its sense of concentration is sometimes ferocious. Entering this sound-world calls for a special kind of commitment and intensity. Patricia Kopatchinskaja (recently described by Strings magazine as “the most exciting violinist in the world”) and Markus Hinterhäuser play the Sonata (1952) and the Duet (1964) for violin and piano, and together with Reto Bieri, the Trio (1949) for clarinet, violin and piano, all recorded in the acoustically superb studio in Lugano which has become one of ECM’s primary locations.
Galina Ustvolskaya - Kopatchinskaja, Hinterhauser, Bieri (2014) {ECM New Series 2329}


ECM INFO

Personnel:
Patricia Kopatchinskaja: violin
Markus Hinterhäuser: piano
Reto Bieri: clarinet

Galina Ustvolskaya - Kopatchinskaja, Hinterhauser, Bieri (2014) {ECM New Series 2329}


tracklist:
01 - Sonata for violin and piano
02 - Trio for clarinet, violin and piano I
03 - Trio for clarinet, violin and piano II
04 - Trio for clarinet, violin and piano III
05 - Duet for violin and piano

Exact Audio Copy V1.0 beta 3 from 29. August 2011

EAC extraction logfile from 10. February 2015, 19:35

Galina Ustvolskaya / Galina Ustvolskaya

Used drive : TSSTcorpCDDVDW SH-224DB Adapter: 2 ID: 0

Read mode : Secure
Utilize accurate stream : Yes
Defeat audio cache : Yes
Make use of C2 pointers : No

Read offset correction : 6
Overread into Lead-In and Lead-Out : No
Fill up missing offset samples with silence : Yes
Delete leading and trailing silent blocks : No
Null samples used in CRC calculations : Yes
Used interface : Native Win32 interface for Win NT & 2000
Gap handling : Appended to previous track

Used output format : User Defined Encoder
Selected bitrate : 768 kBit/s
Quality : High
Add ID3 tag : No
Command line compressor : C:\Program Files (x86)\Exact Audio Copy\FLAC\FLAC.EXE
Additional command line options : -8 -V -T "ARTIST=%artist%" -T "TITLE=%title%" -T "ALBUM=%albumtitle%" -T "DATE=%year%" -T "TRACKNUMBER=%tracknr%" -T "TOTALTRACKS=%numtracks%" -T "GENRE=%genre%" -T "ALBUMARTIST=%albumartist%" -T "ALBUM ARTIST=%albumartist%" -T "COMMENT=EAC Secure Mode, Test & Copy, AccurateRip, FLAC -8" %source%


TOC of the extracted CD

Track | Start | Length | Start sector | End sector
––––––––––––––––––––––––––––-
1 | 0:00.00 | 22:34.44 | 0 | 101593
2 | 22:34.44 | 6:07.12 | 101594 | 129130
3 | 28:41.56 | 3:55.54 | 129131 | 146809
4 | 32:37.35 | 6:06.51 | 146810 | 174310
5 | 38:44.11 | 29:20.43 | 174311 | 306353


Track 1

Filename g:\eac\01 - Sonata for violin and piano.wav

Pre-gap length 0:00:02.00

Peak level 95.0 %
Extraction speed 2.6 X
Track quality 100.0 %
Test CRC 6CED7354
Copy CRC 6CED7354
Accurately ripped (confidence 2) [3EC6F651] (AR v2)
Copy OK

Track 2

Filename g:\eac\02 - Trio for clarinet, violin and piano I.wav

Peak level 64.6 %
Extraction speed 2.5 X
Track quality 99.9 %
Test CRC 74AFECC3
Copy CRC 74AFECC3
Accurately ripped (confidence 2) [0A5EA289] (AR v2)
Copy OK

Track 3

Filename g:\eac\03 - Trio for clarinet, violin and piano II.wav

Peak level 10.8 %
Extraction speed 2.4 X
Track quality 99.9 %
Test CRC A43439DA
Copy CRC A43439DA
Accurately ripped (confidence 2) [C1A100D9] (AR v2)
Copy OK

Track 4

Filename g:\eac\04 - Trio for clarinet, violin and piano III.wav

Peak level 90.1 %
Extraction speed 3.2 X
Track quality 100.0 %
Test CRC AF1B698B
Copy CRC AF1B698B
Accurately ripped (confidence 2) [FFE46A5B] (AR v2)
Copy OK

Track 5

Filename g:\eac\05 - Duet for violin and piano.wav

Peak level 96.7 %
Extraction speed 3.8 X
Track quality 99.9 %
Test CRC 7B75A3A3
Copy CRC 7B75A3A3
Accurately ripped (confidence 2) [355C6071] (AR v2)
Copy OK


All tracks accurately ripped

No errors occurred

End of status report

–– CUETools DB Plugin V2.1.3

[CTDB TOCID: wREUoxcQ3qoz5H6p3JeDzWfJ8Tw-] found, Submit result: wREUoxcQ3qoz5H6p3JeDzWfJ8Tw- has been confirmed
[0aecc4d1] (3/3) Accurately ripped


==== Log checksum 4711A1479285501ACAAF92D14BC9746FCBB4DC79011F1EDB4FC990545D0539D1 ====


Galina Ustvolskaya - Kopatchinskaja, Hinterhauser, Bieri (2014) {ECM New Series 2329}

Galina Ustvolskaya - Kopatchinskaja, Hinterhauser, Bieri (2014) {ECM New Series 2329}