Subcategories

Antonio Vivaldi - Wispelwey & Florigelium - 6 Cello Sonatas (1994)

Posted By: luckburz
Antonio Vivaldi - Wispelwey & Florigelium - 6 Cello Sonatas (1994)

Antonio Vivaldi - Pieter Wispelwey & Florigelium - 6 Cello Sonatas
EAC+LOG+CUE | WV: 280 MB | Full Artwork | 5% Recovery Info
Label/Cat#: Channel Classics # CCS 6294 | Country/Year: Europe 1994
Genre: Classical | Style: Baroque

MD5 [X] CUE [X] LOG [X] INFO TEXT [X] ARTWORK [X]

selfrip [] not my rip [X]

Antonio Vivaldi - Wispelwey & Florigelium - 6 Cello Sonatas (1994)



Exact Audio Copy V1.0 beta 2 from 29. April 2011

EAC extraction logfile from 4. March 2012, 16:02

Pieter Wispelwey & Florigelium / Antonio Vivaldi - 6 cello sonatas

Used drive : HL-DT-STDVDRAM GH20NS10 Adapter: 4 ID: 0

Read mode : Secure
Utilize accurate stream : Yes
Defeat audio cache : Yes
Make use of C2 pointers : No

Read offset correction : 667
Overread into Lead-In and Lead-Out : No
Fill up missing offset samples with silence : Yes
Delete leading and trailing silent blocks : No
Null samples used in CRC calculations : Yes
Used interface : Installed external ASPI interface

Used output format : Internal WAV Routines
Sample format : 44.100 Hz; 16 Bit; Stereo


TOC of the extracted CD

Track | Start | Length | Start sector | End sector
––––––––––––––––––––––––––––-
1 | 0:00.00 | 2:34.33 | 0 | 11582
2 | 2:34.33 | 2:16.30 | 11583 | 21812
3 | 4:50.63 | 2:29.35 | 21813 | 33022
4 | 7:20.23 | 2:30.47 | 33023 | 44319
5 | 9:50.70 | 3:29.38 | 44320 | 60032
6 | 13:20.33 | 3:48.07 | 60033 | 77139
7 | 17:08.40 | 3:07.65 | 77140 | 91229
8 | 20:16.30 | 2:48.40 | 91230 | 103869
9 | 23:04.70 | 3:11.58 | 103870 | 118252
10 | 26:16.53 | 2:30.62 | 118253 | 129564
11 | 28:47.40 | 2:20.43 | 129565 | 140107
12 | 31:08.08 | 2:31.12 | 140108 | 151444
13 | 33:39.20 | 2:15.33 | 151445 | 161602
14 | 35:54.53 | 2:17.62 | 161603 | 171939
15 | 38:12.40 | 2:57.60 | 171940 | 185274
16 | 41:10.25 | 1:44.30 | 185275 | 193104
17 | 42:54.55 | 3:16.55 | 193105 | 207859
18 | 46:11.35 | 2:34.73 | 207860 | 219482
19 | 48:46.33 | 2:54.27 | 219483 | 232559
20 | 51:40.60 | 1:56.03 | 232560 | 241262
21 | 53:36.63 | 3:47.07 | 241263 | 258294
22 | 57:23.70 | 2:39.15 | 258295 | 270234
23 | 60:03.10 | 3:32.18 | 270235 | 286152
24 | 63:35.28 | 2:09.25 | 286153 | 295852


Range status and errors

Selected range

Filename Z:\NetLab\Antonio Vivaldi - 6 cello sonatas (Pieter Wispelwey, Florigelium) (1994) {Channel Classics CCS 6294}\Antonio Vivaldi - 6 cello sonatas.wav

Peak level 93.6 %
Extraction speed 6.6 X
Range quality 100.0 %
Test CRC 03C814E1
Copy CRC 03C814E1
Copy OK

No errors occurred


AccurateRip summary

Track 1 accurately ripped (confidence 5) [2D20D56E] (AR v1)
Track 2 accurately ripped (confidence 5) [64A6907D] (AR v1)
Track 3 accurately ripped (confidence 5) [FD739E69] (AR v1)
Track 4 accurately ripped (confidence 5) [EF9BD90C] (AR v1)
Track 5 accurately ripped (confidence 5) [3EFDA453] (AR v1)
Track 6 accurately ripped (confidence 5) [8705ED38] (AR v1)
Track 7 accurately ripped (confidence 5) [25CAEC48] (AR v1)
Track 8 accurately ripped (confidence 5) [9A34D432] (AR v1)
Track 9 accurately ripped (confidence 5) [CD82D12F] (AR v1)
Track 10 accurately ripped (confidence 5) [B702B8C9] (AR v1)
Track 11 accurately ripped (confidence 5) [DF2BC1D2] (AR v1)
Track 12 accurately ripped (confidence 5) [ECD842C3] (AR v1)
Track 13 accurately ripped (confidence 5) [F35DB6D2] (AR v1)
Track 14 accurately ripped (confidence 5) [ED8A8447] (AR v1)
Track 15 accurately ripped (confidence 5) [7277DC8B] (AR v1)
Track 16 accurately ripped (confidence 5) [F97AC251] (AR v1)
Track 17 accurately ripped (confidence 5) [34B72EAD] (AR v1)
Track 18 accurately ripped (confidence 5) [E9ABE100] (AR v1)
Track 19 accurately ripped (confidence 5) [CDA01DCF] (AR v1)
Track 20 accurately ripped (confidence 5) [FF7C6A09] (AR v1)
Track 21 accurately ripped (confidence 5) [BEE08822] (AR v1)
Track 22 accurately ripped (confidence 5) [ECF0645B] (AR v1)
Track 23 accurately ripped (confidence 5) [61F951F9] (AR v1)
Track 24 accurately ripped (confidence 5) [9E1A1F7C] (AR v1)

All tracks accurately ripped

End of status report

==== Log checksum EE8C51E43C606F27EEC428950EC32C2454B0F8EE496AC26B8D16538EAE410E3B ====

auCDtect: CD records authenticity detector, version 0.8.2
Copyright © 2004 Oleg Berngardt. All rights reserved.
Copyright © 2004 Alexander Djourik. All rights reserved.

Detect mode (0..40 with 0 = most accurate): 8 (default)


––––––––––––––––––––––––––––––
[01 - Sonata No. 6 in B flat major, RV 46; I. Preludio.wav]
Detected average hi-boundary frequency: 2.022232e+004 Hz
Detected average lo-boundary frequency: 1.500615e+004 Hz
Detected average hi-cut frequency: 2.137754e+004 Hz
Detected average lo-cut frequency: 1.009787e+004 Hz
Maximum probablis boundary frequency: 2.169700e+004 Hz
Coefficient of nonlinearity of a phase: 2.177843e+000
First order smothness: 2.826087e-001
Second order smothness: 7.228261e-001
––––––––––––––––––––––––––––––
This track looks like CDDA with probability 100%.

––––––––––––––––––––––––––––––
[02 - II. Allemanda.wav]
Detected average hi-boundary frequency: 2.004820e+004 Hz
Detected average lo-boundary frequency: 1.298138e+004 Hz
Detected average hi-cut frequency: 2.154474e+004 Hz
Detected average lo-cut frequency: 6.795102e+003 Hz
Maximum probablis boundary frequency: 2.158400e+004 Hz
Coefficient of nonlinearity of a phase: 1.544031e+000
First order smothness: 3.048780e-001
Second order smothness: 6.585366e-001
––––––––––––––––––––––––––––––
This track looks like CDDA with probability 100%.

––––––––––––––––––––––––––––––
[03 - III. Largo.wav]
Detected average hi-boundary frequency: 2.013876e+004 Hz
Detected average lo-boundary frequency: 1.344477e+004 Hz
Detected average hi-cut frequency: 2.146751e+004 Hz
Detected average lo-cut frequency: 8.566873e+003 Hz
Maximum probablis boundary frequency: 2.175700e+004 Hz
Coefficient of nonlinearity of a phase: 2.130253e+000
First order smothness: 2.402235e-001
Second order smothness: 7.486034e-001
––––––––––––––––––––––––––––––
This track looks like CDDA with probability 100%.

––––––––––––––––––––––––––––––
[04 - IV. Corrente.wav]
Detected average hi-boundary frequency: 2.002597e+004 Hz
Detected average lo-boundary frequency: 1.316781e+004 Hz
Detected average hi-cut frequency: 2.139480e+004 Hz
Detected average lo-cut frequency: 8.643449e+003 Hz
Maximum probablis boundary frequency: 2.079300e+004 Hz
Coefficient of nonlinearity of a phase: 1.412105e+000
First order smothness: 3.204420e-001
Second order smothness: 5.911602e-001
––––––––––––––––––––––––––––––
This track looks like CDDA with probability 100%.

––––––––––––––––––––––––––––––
[05 - Sonata No. 7 in G minor, RV 42; I. Preludio.wav]
Detected average hi-boundary frequency: 2.008077e+004 Hz
Detected average lo-boundary frequency: 1.397951e+004 Hz
Detected average hi-cut frequency: 2.143131e+004 Hz
Detected average lo-cut frequency: 8.779761e+003 Hz
Maximum probablis boundary frequency: 2.183200e+004 Hz
Coefficient of nonlinearity of a phase: 1.536178e+000
First order smothness: 2.828685e-001
Second order smothness: 7.011952e-001
––––––––––––––––––––––––––––––
This track looks like CDDA with probability 100%.

––––––––––––––––––––––––––––––
[06 - II. Allemanda.wav]
Detected average hi-boundary frequency: 2.029520e+004 Hz
Detected average lo-boundary frequency: 1.430324e+004 Hz
Detected average hi-cut frequency: 2.146774e+004 Hz
Detected average lo-cut frequency: 8.542854e+003 Hz
Maximum probablis boundary frequency: 2.026000e+004 Hz
Coefficient of nonlinearity of a phase: 1.731953e+000
First order smothness: 3.260073e-001
Second order smothness: 5.787546e-001
––––––––––––––––––––––––––––––
This track looks like CDDA with probability 100%.

––––––––––––––––––––––––––––––
[07 - III. Sarabanda.wav]
Detected average hi-boundary frequency: 2.024672e+004 Hz
Detected average lo-boundary frequency: 1.334937e+004 Hz
Detected average hi-cut frequency: 2.145248e+004 Hz
Detected average lo-cut frequency: 9.172128e+003 Hz
Maximum probablis boundary frequency: 2.189600e+004 Hz
Coefficient of nonlinearity of a phase: 2.144891e+000
First order smothness: 3.022222e-001
Second order smothness: 6.933333e-001
––––––––––––––––––––––––––––––
This track looks like CDDA with probability 100%.

––––––––––––––––––––––––––––––
[08 - IV. Gigue.wav]
Detected average hi-boundary frequency: 2.022432e+004 Hz
Detected average lo-boundary frequency: 1.300378e+004 Hz
Detected average hi-cut frequency: 2.143672e+004 Hz
Detected average lo-cut frequency: 7.597593e+003 Hz
Maximum probablis boundary frequency: 2.189100e+004 Hz
Coefficient of nonlinearity of a phase: 1.692606e+000
First order smothness: 3.811881e-001
Second order smothness: 5.346535e-001
––––––––––––––––––––––––––––––
This track looks like CDDA with probability 100%.

––––––––––––––––––––––––––––––
[09 - Sonata No. 9 in E flat major, RV 39; I. Larghetto.wav]
Detected average hi-boundary frequency: 2.016776e+004 Hz
Detected average lo-boundary frequency: 1.510176e+004 Hz
Detected average hi-cut frequency: 2.143148e+004 Hz
Detected average lo-cut frequency: 7.486269e+003 Hz
Maximum probablis boundary frequency: 2.189100e+004 Hz
Coefficient of nonlinearity of a phase: 2.244056e+000
First order smothness: 3.130435e-001
Second order smothness: 6.782609e-001
––––––––––––––––––––––––––––––
This track looks like CDDA with probability 100%.

––––––––––––––––––––––––––––––
[10 - II. Allegro.wav]
Detected average hi-boundary frequency: 2.013685e+004 Hz
Detected average lo-boundary frequency: 1.266247e+004 Hz
Detected average hi-cut frequency: 2.142034e+004 Hz
Detected average lo-cut frequency: 6.888544e+003 Hz
Maximum probablis boundary frequency: 2.189100e+004 Hz
Coefficient of nonlinearity of a phase: 1.751639e+000
First order smothness: 2.928177e-001
Second order smothness: 6.906077e-001
––––––––––––––––––––––––––––––
This track looks like CDDA with probability 100%.

––––––––––––––––––––––––––––––
[11 - III. Andante.wav]
Detected average hi-boundary frequency: 1.998819e+004 Hz
Detected average lo-boundary frequency: 1.462840e+004 Hz
Detected average hi-cut frequency: 2.137993e+004 Hz
Detected average lo-cut frequency: 7.000578e+003 Hz
Maximum probablis boundary frequency: 2.191300e+004 Hz
Coefficient of nonlinearity of a phase: 1.916338e+000
First order smothness: 3.076923e-001
Second order smothness: 6.863905e-001
––––––––––––––––––––––––––––––
This track looks like CDDA with probability 100%.

––––––––––––––––––––––––––––––
[12 - IV. Allegro.wav]
Detected average hi-boundary frequency: 1.996858e+004 Hz
Detected average lo-boundary frequency: 1.388003e+004 Hz
Detected average hi-cut frequency: 2.144211e+004 Hz
Detected average lo-cut frequency: 5.904330e+003 Hz
Maximum probablis boundary frequency: 2.066400e+004 Hz
Coefficient of nonlinearity of a phase: 1.679730e+000
First order smothness: 3.535912e-001
Second order smothness: 5.359116e-001
––––––––––––––––––––––––––––––
This track looks like CDDA with probability 100%.

––––––––––––––––––––––––––––––
[13 - Sonata No. 8 in A minor, RV 44; I. Largo.wav]
Detected average hi-boundary frequency: 2.053455e+004 Hz
Detected average lo-boundary frequency: 1.471508e+004 Hz
Detected average hi-cut frequency: 2.142381e+004 Hz
Detected average lo-cut frequency: 1.584904e+004 Hz
Maximum probablis boundary frequency: 2.137400e+004 Hz
Coefficient of nonlinearity of a phase: 1.442153e+000
First order smothness: 2.392638e-001
Second order smothness: 8.404908e-001
––––––––––––––––––––––––––––––
This track looks like CDDA with probability 100%.

––––––––––––––––––––––––––––––
[14 - II. Allegro poco.wav]
Detected average hi-boundary frequency: 2.071738e+004 Hz
Detected average lo-boundary frequency: 1.541106e+004 Hz
Detected average hi-cut frequency: 2.157078e+004 Hz
Detected average lo-cut frequency: 1.806318e+004 Hz
Maximum probablis boundary frequency: 2.189100e+004 Hz
Coefficient of nonlinearity of a phase: 1.466820e+000
First order smothness: 3.030303e-001
Second order smothness: 8.545455e-001
––––––––––––––––––––––––––––––
This track looks like CDDA with probability 100%.

––––––––––––––––––––––––––––––
[15 - III. Largo.wav]
Detected average hi-boundary frequency: 2.020908e+004 Hz
Detected average lo-boundary frequency: 1.395229e+004 Hz
Detected average hi-cut frequency: 2.144693e+004 Hz
Detected average lo-cut frequency: 8.365095e+003 Hz
Maximum probablis boundary frequency: 2.192300e+004 Hz
Coefficient of nonlinearity of a phase: 2.221950e+000
First order smothness: 2.957746e-001
Second order smothness: 6.948357e-001
––––––––––––––––––––––––––––––
This track looks like CDDA with probability 100%.

––––––––––––––––––––––––––––––
[16 - IV. Allegro.wav]
Detected average hi-boundary frequency: 2.037185e+004 Hz
Detected average lo-boundary frequency: 1.558279e+004 Hz
Detected average hi-cut frequency: 2.146861e+004 Hz
Detected average lo-cut frequency: 1.575792e+004 Hz
Maximum probablis boundary frequency: 2.189600e+004 Hz
Coefficient of nonlinearity of a phase: 1.180100e+000
First order smothness: 2.720000e-001
Second order smothness: 6.640000e-001
––––––––––––––––––––––––––––––
This track looks like CDDA with probability 100%.

––––––––––––––––––––––––––––––
[17 - Sonata No. 5 in E minor, RV 40; I. Largo.wav]
Detected average hi-boundary frequency: 2.030252e+004 Hz
Detected average lo-boundary frequency: 1.573680e+004 Hz
Detected average hi-cut frequency: 2.146704e+004 Hz
Detected average lo-cut frequency: 1.370646e+004 Hz
Maximum probablis boundary frequency: 2.191800e+004 Hz
Coefficient of nonlinearity of a phase: 1.454823e+000
First order smothness: 2.330508e-001
Second order smothness: 8.177966e-001
––––––––––––––––––––––––––––––
This track looks like CDDA with probability 100%.

––––––––––––––––––––––––––––––
[18 - II. Allegro.wav]
Detected average hi-boundary frequency: 2.061617e+004 Hz
Detected average lo-boundary frequency: 1.386398e+004 Hz
Detected average hi-cut frequency: 2.153071e+004 Hz
Detected average lo-cut frequency: 1.636906e+004 Hz
Maximum probablis boundary frequency: 2.190200e+004 Hz
Coefficient of nonlinearity of a phase: 1.264459e+000
First order smothness: 3.010753e-001
Second order smothness: 7.634409e-001
––––––––––––––––––––––––––––––
This track looks like CDDA with probability 100%.

––––––––––––––––––––––––––––––
[19 - III. Largo.wav]
Detected average hi-boundary frequency: 2.008060e+004 Hz
Detected average lo-boundary frequency: 1.459242e+004 Hz
Detected average hi-cut frequency: 2.131254e+004 Hz
Detected average lo-cut frequency: 8.137366e+003 Hz
Maximum probablis boundary frequency: 2.189100e+004 Hz
Coefficient of nonlinearity of a phase: 2.186206e+000
First order smothness: 2.822967e-001
Second order smothness: 6.267943e-001
––––––––––––––––––––––––––––––
This track looks like CDDA with probability 100%.

––––––––––––––––––––––––––––––
[20 - IV. Allegro.wav]
Detected average hi-boundary frequency: 2.050175e+004 Hz
Detected average lo-boundary frequency: 1.609314e+004 Hz
Detected average hi-cut frequency: 2.158248e+004 Hz
Detected average lo-cut frequency: 1.444493e+004 Hz
Maximum probablis boundary frequency: 2.195000e+004 Hz
Coefficient of nonlinearity of a phase: 1.429306e+000
First order smothness: 3.021583e-001
Second order smothness: 6.402878e-001
––––––––––––––––––––––––––––––
This track looks like CDDA with probability 100%.

––––––––––––––––––––––––––––––
[21 - Sonata No. 4 in B flat major, RV 45; I. Largo.wav]
Detected average hi-boundary frequency: 2.043458e+004 Hz
Detected average lo-boundary frequency: 1.611123e+004 Hz
Detected average hi-cut frequency: 2.145845e+004 Hz
Detected average lo-cut frequency: 1.511094e+004 Hz
Maximum probablis boundary frequency: 2.138500e+004 Hz
Coefficient of nonlinearity of a phase: 1.306356e+000
First order smothness: 2.610294e-001
Second order smothness: 7.830882e-001
––––––––––––––––––––––––––––––
This track looks like CDDA with probability 100%.

––––––––––––––––––––––––––––––
[22 - II. Allegro.wav]
Detected average hi-boundary frequency: 2.046194e+004 Hz
Detected average lo-boundary frequency: 1.479381e+004 Hz
Detected average hi-cut frequency: 2.145531e+004 Hz
Detected average lo-cut frequency: 1.022504e+004 Hz
Maximum probablis boundary frequency: 2.189600e+004 Hz
Coefficient of nonlinearity of a phase: 9.179405e-001
First order smothness: 3.874346e-001
Second order smothness: 5.916230e-001
––––––––––––––––––––––––––––––
This track looks like CDDA with probability 100%.

––––––––––––––––––––––––––––––
[23 - III. Largo.wav]
Detected average hi-boundary frequency: 2.049041e+004 Hz
Detected average lo-boundary frequency: 1.595003e+004 Hz
Detected average hi-cut frequency: 2.152551e+004 Hz
Detected average lo-cut frequency: 1.305143e+004 Hz
Maximum probablis boundary frequency: 2.143900e+004 Hz
Coefficient of nonlinearity of a phase: 1.505899e+000
First order smothness: 2.755906e-001
Second order smothness: 7.283465e-001
––––––––––––––––––––––––––––––
This track looks like CDDA with probability 100%.

––––––––––––––––––––––––––––––
[24 - IV. Allegro.wav]
Detected average hi-boundary frequency: 2.017578e+004 Hz
Detected average lo-boundary frequency: 1.544626e+004 Hz
Detected average hi-cut frequency: 2.153250e+004 Hz
Detected average lo-cut frequency: 1.619229e+004 Hz
Maximum probablis boundary frequency: 2.190700e+004 Hz
Coefficient of nonlinearity of a phase: 1.151306e+000
First order smothness: 3.006536e-001
Second order smothness: 7.450980e-001
––––––––––––––––––––––––––––––
This track looks like CDDA with probability 100%.

foobar2000 1.1.15 / Dynamic Range Meter 1.1.1
log date: 2012-09-26 13:08:05

––––––––––––––––––––––––––––––––––––––––
Analyzed: Pieter Wispelwey & Florigelium / Antonio Vivaldi - 6 cello sonatas
––––––––––––––––––––––––––––––––––––––––

DR Peak RMS Duration Track
––––––––––––––––––––––––––––––––––––––––
DR11 -2.56 dB -18.42 dB 2:34 01-Sonata No. 6 in B flat major, RV 46; I. Preludio
DR13 -0.57 dB -18.83 dB 2:16 02-II. Allemanda
DR12 -3.86 dB -20.46 dB 2:29 03-III. Largo
DR13 -3.18 dB -19.11 dB 2:31 04-IV. Corrente
DR12 -8.99 dB -24.90 dB 3:30 05-Sonata No. 7 in G minor, RV 42; I. Preludio
DR12 -6.64 dB -22.82 dB 3:48 06-II. Allemanda
DR11 -9.10 dB -25.28 dB 3:08 07-III. Sarabanda
DR13 -6.50 dB -23.14 dB 2:49 08-IV. Gigue
DR11 -1.42 dB -18.98 dB 3:12 09-Sonata No. 9 in E flat major, RV 39; I. Larghetto
DR12 -3.68 dB -19.46 dB 2:31 10-II. Allegro
DR14 -1.71 dB -20.25 dB 2:21 11-III. Andante
DR13 -2.54 dB -19.71 dB 2:31 12-IV. Allegro
DR13 -2.28 dB -22.18 dB 2:15 13-Sonata No. 8 in A minor, RV 44; I. Largo
DR12 -8.31 dB -23.55 dB 2:18 14-II. Allegro poco
DR12 -8.76 dB -25.42 dB 2:58 15-III. Largo
DR13 -4.58 dB -21.81 dB 1:44 16-IV. Allegro
DR12 -2.78 dB -20.85 dB 3:17 17-Sonata No. 5 in E minor, RV 40; I. Largo
DR14 -4.62 dB -22.80 dB 2:35 18-II. Allegro
DR10 -11.16 dB -30.47 dB 2:54 19-III. Largo
DR14 -4.21 dB -22.85 dB 1:56 20-IV. Allegro
DR13 -4.78 dB -22.60 dB 3:47 21-Sonata No. 4 in B flat major, RV 45; I. Largo
DR13 -4.44 dB -21.94 dB 2:39 22-II. Allegro
DR11 -6.90 dB -24.21 dB 3:32 23-III. Largo
DR13 -3.65 dB -23.34 dB 2:09 24-IV. Allegro
––––––––––––––––––––––––––––––––––––––––

Number of tracks: 24
Official DR value: DR12

Samplerate: 44100 Hz
Channels: 2
Bits per sample: 16
Bitrate: 606 kbps
Codec: WavPack
================================================================================



CD Info:

Antonio Vivaldi (1678-1741) - Pieter Wispelwey & Florigelium - 6 Cello Sonatas

Label: Channel Classics
Catalog#: CCS 6294
Format: CD, Album
Country: Europe
Released: 1994
Genre: Classical
Style: Baroque

Tracklist:

Sonata nr. 6 B flat Major
1. Preludio 2"34"
2. Allemanda 2"16"
3. Largo 2"29"
4. Corrente 2"24"

Sonata nr. 7 g minor
5. Preludio 3"29"
6. Allemanda 3"48"
7. Sarabanda 3"07"
8. Gigue 2"39"

Sonata nr. 9 E flat Major
9. Larghetto 3"11"
10. Allegro 2"30"
11. Andante 2"20"
12 Allegro 2"21"

Sonata nr. 8 a minor
13. Largo 2"15"
14. Allegro poco 2"17"
15. Largo 2"57"
16. Allegro 1"36"

Sonata nr. 5 e minor
17. Largo 3"16"
18. Allegro 2"34"
19. Largo 2"54"
20. Allegro 1"47"

Sonata nr. 4 B flat Major
21. Largo 3"47"
22. Allegro 2"39"
23. Largo 3"32"
24. Allegro 2"09"

Pieter Wispelwey - violoncello solo

Florilegium:
Neal Peres Da Costa - harpsichord, organ
Daniel Yeadon - continuo violoncello
Elizabeth Kenny - archlute, theorbo, guitar
William Carter - archlute, theorbo, guitar

http://www.channelclassics.com/vivaldi-6-cello-sonatas.html

Antonio Vivaldi - Wispelwey & Florigelium - 6 Cello Sonatas (1994)


Disc reviews by Michael Jameson "BBC Music Magazine"
Pointed, agile and extrovert playing from Pieter Wispelwey, a young Dutch artist with an impeccable pedigree in music of the Baroque era (his teachers included Anner Bylsma and Anthony Pleeth), and members of the ensemble Florilegium. To dispense initially with questions of provenance, the first three works recorded here are unquestionably by Antonio Vivaldi; RV39, 42 and 44, discovered in the Schonborn archive in Bavaria and published in 1975, remain the focus of controversy (though their attribution is far less problematic than that of another A minor work, not included here, yet accredited to the composer for well over 150 years). The notes suggest that the recording aims to recapture something of the vitality, exuberance and adventure associated with Vivaldi’s Venice. The performances reflect a balanced synthesis of flair, introspection and decorum, ensuring that such aspirations are ideally realised; Wispelwey’s tempi are lithe and mobile, with imaginative continuo realisations from Florilegium adding variety and gravitas throughout. Harpsichord and organ registrations are expertly tailored to support the solo line, while varied combinations of archlute, guitar and theorbo are used in all except RV39. Wispelwey plays an English instrument by Barak Norman (1710) whose bright, immediate timbre is a welcome asset in these sonatas. An involving issue, enhanced by discreetly balanced and mercifully uncoloured recorded sound.

Originally uploaded by pr3ess. Thanks a lot!
Antonio Vivaldi - Wispelwey & Florigelium - 6 Cello Sonatas (1994)

More Pieter Wispelwey & Florigelium can be found here:
Antonio Vivaldi - Pieter Wispelwey & Florigelium - Concerti For Cello And Orchestra

// classical music \\

// all of my uploads \\
________________

Download:

Lossless

Artwork
________________