Subcategories

Pieter Wispelwey - JS Bach - 6 Suites For Cello Solo (2012) [2CD+DVD] {EPR-Classic}

Posted By: ruskaval
Pieter Wispelwey - JS Bach - 6 Suites For Cello Solo (2012) [2CD+DVD] {EPR-Classic}

Pieter Wispelwey - JS Bach - 6 Suites For Cello Solo (2012) [2CD+DVD] {EPR-Classic}
EAC rip (secure mode) | FLAC (tracks)+CUE+LOG -> 736 Mb | MP3 @320 -> 344 Mb
DVD9 -> 2.73 Gb | All Regions | NTSC 16:9 | Dolby AC3, 2 ch / Dolby AC3, 6 ch
Subs: English, Nederlands, Deutsch, Francais | ~ 52h | ISO Image
Full Artwork @ 300 dpi (png) -> 152 Mb | 5% repair rar
© 2012 EPR-Classic / Evil Penguin Records Classic | 2012 EPRC 0012
Classical / Chamber Music / Cello

OK, are you ready for something completely different? From someone who has already recorded two complete sets of Bach's six suites for solo cello, BWV 1007-1012, no less? Where to begin? Dutch historical-performance specialist Pieter Wispelwey disregards the long performance tradition associated with these six suites, which seem like cousins to Bach's sonatas and partitas for solo violin but are actually quite different in character (there are no sonatas, for one thing). Even players of the Baroque cello sometimes seem to have Pablo Casals' magisterial recordings in their heads, but Casals is not in the building at all for these readings. They seem to rest on three principles.
Pieter Wispelwey - JS Bach - 6 Suites For Cello Solo (2012) [2CD+DVD] {EPR-Classic}

First and foremost, Wispelwey has drawn on Baroque theories of rhetoric in constructing his interpretation. These were certainly in the air when Bach composed these works, although why they should apply specifically to the cello suites is less clear. Each phrase in Wispelwey's reading is like a spoken utterance. Notes are cleanly cut off, with very little legato, and the tempo is freely varied as speech might be. Second, Wispelwey's tempi are unorthodox in the extreme, tending mostly toward the fast side. Plunge in and sample the opening movement of the Suite for solo cello in G major, BWV 1007, for an idea of what you're getting into here. Third, although Wispelwey is not the first performer to de-emphasize the dance rhythms in these suites, he diverges from them to an unusual degree. Each of the dance movements is almost a character piece in the vein of Couperin, but with an entirely different set of instrumental textures. Throw in growling cello textures due to A=392 tuning, said to be authentic to the city of Köthen where the suites were written, and you get extremely un-song-like utterances throughout. It may all seem to add up to something with only a passing resemblance to what Bach wrote, but Wispelwey has the chops to pull this off, and there's an appealing sense of drilling deep into the music here. The sound from the ominously named Evil Penguin label, way too close up, is a disincentive even so, and this is probably not a good choice for those new to the music. Listeners will ultimately have to make up their own minds about this experiment, but it commands attention.
Pieter Wispelwey - JS Bach - 6 Suites For Cello Solo (2012) [2CD+DVD] {EPR-Classic}

The key to this set is the DVD which is included, 392, Pieter Wispelwey and the Bach Cello Suites . The 392 refers of course to the pitch at which his instrument is tuned, and this is a central aspect of how this performance is seen by Wispelwey, and he demonstrates the clear differences between instruments… The DVD is worth the asking price for this set on its own, with plenty of fascinating insights based on close research in and around Bach's life, as well as clips of live performances given in Oxford… …Wispelwey extends shapes, plays with pauses and silence, and explores the resonance of the instrument to the full. The Allemande of the Suite No. 1 is an example of this shaping of space, taking time between phrases while allowing the strings to thrum, something which happens a good deal less on a modern instrument with wound metal strings. There is a nicely natural feel to this kind of playing, and a grounding of long experience which demonstrates a keen knowledge of what works and an avoidance of what doesn't. The low tuning results in a gruffer tone to the usually mild and lyrical Sarabande of this suite, Wispelwey sticking to the harmony notes a little longer, allowing their tonality to speak, where too short a resonance sounds as if it wouldn't work . This can have a more extreme effect further on, and listening blind to something like the Sarabande of the Suite No. 3 you might be forgiven for thinking it was an expertly played double bass rather than a cello. These differences are fascinating, but throw up questions as well as new perspectives on familiar works. While there is superb playing throughout this set, you might find it hard to get used to the darker colours and otherness of expression coming from these performances. Wispelwey discusses the Prelude of the Suite No. 4, concluding that the baroque cello suits a much lighter touch, imitating fingers on the strings of a lute rather than the pedals of an organ. This results in something far less linear than what we are usually served up; played slower as well as in a more separated way, the notes gain an extra identity as well as establishing new relationships. I for one relish the drama implied in the Prelude of the Suite No. 5, but following the logical flow of the music in such a movement can be a challenge, and these recordings may not be the ideal place to start a journey of discovery into J.S. Bach's cello suites, though the challenge is something which is in the very essence of these works, both for performer and listener. The downward re-tuning of the upper string in this fifth suite creates graveyard associations, and darkness abounds as in few other performances I could name. The contrast of relief in the light and joy in the Suite No. 6, played on a piccolo cello with an added upper E string is palpable. What also raises this release above the average in these works is the excellent recording quality… Detailed and close, you are embraced by warm, wooden sonorities, and can easily lose yourself in the music. Fingers tapping on the fingerboard and a certain amount of breathing are the side-effects of such an up-front and personal position, but the benefits far outweigh any blemishes… So yes, even if you know and love one or more complete recording of J.S Bach s Suites for cello solo, then you owe it to yourself to acquire a copy of this release. The DVD deconstructs and analyses in a very approachable way, and even if you think you know plenty about these works this shows this shows there is always more to discover. If ever there was a recording which takes us behind the notes of these pieces and adds to our understanding of their qualities then this is the one. That these are deeply satisfying performances and a marvellous recording seems an almost incidental bonus.

Video INFO

tracklist:
CD1

Suite no.1 in G major BWV 1007
01. Prelude
02. Allemande
03. Courante
04. Sarabande
05. Menuet I and II
06. Gigue

Suite no.2 in D minor BWV 1008
07. Prelude
08. Allemande
09. Courante
10. Sarabande
11. Menuet I and II
12. Gigue

Suite no.3 in C major BWV 1009
13. Prelude
14. Allemande
15. Courante –
16. Sarabande –
17. Bourrée I and II –
18. Gigue

Pieter Wispelwey - JS Bach - 6 Suites For Cello Solo (2012) [2CD+DVD] {EPR-Classic}


CD2
Suite no.4 in E flat major BWV 1010
01. Prelude
02. Allemande
03. Courante
04. Sarabande
05. Bourrée I and II
06. Gigue

Suite no.5 in C minor BWV 1011
07. Prelude
08. Allemande
09. Courante
10. Sarabande
11. Gavotte I and II
12. Gigue


Suite no.6 in D major (a cinq cordes) BWV 1012
13. Prelude
14. Allemande
15. Courante
16. Sarabande –
17. Gavotte I and II
18. Gigue

Pieter Wispelwey - JS Bach - 6 Suites For Cello Solo (2012) [2CD+DVD] {EPR-Classic}


DVD

Pieter Wispelwey - JS Bach - 6 Suites For Cello Solo (2012) [2CD+DVD] {EPR-Classic}


Exact Audio Copy V1.0 beta 3 from 29. August 2011

EAC extraction logfile from 1. April 2013, 17:11

Pieter Wispelwey / JS Bach - 6 Suites For Cello Solo CD1

Used drive : PLEXTOR DVDR PX-860A Adapter: 0 ID: 0

Read mode : Secure
Utilize accurate stream : Yes
Defeat audio cache : Yes
Make use of C2 pointers : No

Read offset correction : 96
Overread into Lead-In and Lead-Out : No
Fill up missing offset samples with silence : Yes
Delete leading and trailing silent blocks : No
Null samples used in CRC calculations : Yes
Used interface : Native Win32 interface for Win NT & 2000
Gap handling : Appended to previous track

Used output format : User Defined Encoder
Selected bitrate : 1024 kBit/s
Quality : High
Add ID3 tag : No
Command line compressor : C:\Program Files\Exact Audio Copy\Flac\flac.exe
Additional command line options : -8 -V -T "ARTIST=%artist%" -T "TITLE=%title%" -T "ALBUM=%albumtitle%" -T "DATE=%year%" -T "TRACKNUMBER=%tracknr%" -T "GENRE=%genre%" -T "PERFORMER=%albuminterpret%" -T "COMPOSER=%composer%" %haslyrics%–tag-from-file=LYRICS="%lyricsfile%"%haslyrics% -T "ALBUMARTIST=%albumartist%" -T "DISCNUMBER=%cdnumber%" -T "TOTALDISCS=%totalcds%" -T "TOTALTRACKS=%numtracks%" -T "COMMENT=EAC Secure Mode, Test & Copy, AccurateRip, FLAC -8" %source% -o %dest%


TOC of the extracted CD

Track | Start | Length | Start sector | End sector
––––––––––––––––––––––––––––-
1 | 0:00.00 | 2:06.05 | 0 | 9454
2 | 2:06.05 | 4:45.53 | 9455 | 30882
3 | 6:51.58 | 2:43.21 | 30883 | 43128
4 | 9:35.04 | 2:48.25 | 43129 | 55753
5 | 12:23.29 | 3:05.52 | 55754 | 69680
6 | 15:29.06 | 1:33.48 | 69681 | 76703
7 | 17:02.54 | 3:21.67 | 76704 | 91845
8 | 20:24.46 | 4:15.06 | 91846 | 110976
9 | 24:39.52 | 1:59.21 | 110977 | 119922
10 | 26:38.73 | 4:34.65 | 119923 | 140537
11 | 31:13.63 | 2:48.26 | 140538 | 153163
12 | 34:02.14 | 2:36.08 | 153164 | 164871
13 | 36:38.22 | 2:45.28 | 164872 | 177274
14 | 39:23.50 | 4:17.17 | 177275 | 196566
15 | 43:40.67 | 2:59.63 | 196567 | 210054
16 | 46:40.55 | 4:10.36 | 210055 | 228840
17 | 50:51.16 | 3:17.15 | 228841 | 243630
18 | 54:08.31 | 3:10.54 | 243631 | 257934


Track 1

Filename O:\DL\Pieter Wispelwey - JS Bach - 6 Suites For Cello Solo CD1 (2012) [FLAC]\01 - Suite no.1 in G major BWV 1007 - Prelude.wav

Pre-gap length 0:00:02.00

Peak level 95.0 %
Extraction speed 3.7 X
Track quality 100.0 %
Test CRC D544C7E8
Copy CRC D544C7E8
Track not present in AccurateRip database
Copy OK

Track 2

Filename O:\DL\Pieter Wispelwey - JS Bach - 6 Suites For Cello Solo CD1 (2012) [FLAC]\02 - Suite no.1 in G major BWV 1007 - Allemande.wav

Peak level 95.0 %
Extraction speed 4.6 X
Track quality 100.0 %
Test CRC 0EDE9E67
Copy CRC 0EDE9E67
Track not present in AccurateRip database
Copy OK

Track 3

Filename O:\DL\Pieter Wispelwey - JS Bach - 6 Suites For Cello Solo CD1 (2012) [FLAC]\03 - Suite no.1 in G major BWV 1007 - Courante.wav

Peak level 95.0 %
Extraction speed 4.7 X
Track quality 100.0 %
Test CRC F80D2E41
Copy CRC F80D2E41
Track not present in AccurateRip database
Copy OK

Track 4

Filename O:\DL\Pieter Wispelwey - JS Bach - 6 Suites For Cello Solo CD1 (2012) [FLAC]\04 - Suite no.1 in G major BWV 1007 - Sarabande.wav

Peak level 95.0 %
Extraction speed 4.2 X
Track quality 99.9 %
Test CRC A3F9377A
Copy CRC A3F9377A
Track not present in AccurateRip database
Copy OK

Track 5

Filename O:\DL\Pieter Wispelwey - JS Bach - 6 Suites For Cello Solo CD1 (2012) [FLAC]\05 - Suite no.1 in G major BWV 1007 - Menuet I and II.wav

Peak level 95.0 %
Extraction speed 5.3 X
Track quality 100.0 %
Test CRC 19B324B2
Copy CRC 19B324B2
Track not present in AccurateRip database
Copy OK

Track 6

Filename O:\DL\Pieter Wispelwey - JS Bach - 6 Suites For Cello Solo CD1 (2012) [FLAC]\06 - Suite no.1 in G major BWV 1007 - Gigue.wav

Peak level 95.0 %
Extraction speed 4.6 X
Track quality 100.0 %
Test CRC 36FEDA61
Copy CRC 36FEDA61
Track not present in AccurateRip database
Copy OK

Track 7

Filename O:\DL\Pieter Wispelwey - JS Bach - 6 Suites For Cello Solo CD1 (2012) [FLAC]\07 - Suite no.2 in D minor BWV 1008 - Prelude.wav

Peak level 95.0 %
Extraction speed 5.8 X
Track quality 100.0 %
Test CRC 0A239A21
Copy CRC 0A239A21
Track not present in AccurateRip database
Copy OK

Track 8

Filename O:\DL\Pieter Wispelwey - JS Bach - 6 Suites For Cello Solo CD1 (2012) [FLAC]\08 - Suite no.2 in D minor BWV 1008 - Allemande.wav

Peak level 95.0 %
Extraction speed 6.2 X
Track quality 100.0 %
Test CRC D1E8A88F
Copy CRC D1E8A88F
Track not present in AccurateRip database
Copy OK

Track 9

Filename O:\DL\Pieter Wispelwey - JS Bach - 6 Suites For Cello Solo CD1 (2012) [FLAC]\09 - Suite no.2 in D minor BWV 1008 - Courante.wav

Peak level 95.0 %
Extraction speed 5.7 X
Track quality 100.0 %
Test CRC 7F1BB7DB
Copy CRC 7F1BB7DB
Track not present in AccurateRip database
Copy OK

Track 10

Filename O:\DL\Pieter Wispelwey - JS Bach - 6 Suites For Cello Solo CD1 (2012) [FLAC]\10 - Suite no.2 in D minor BWV 1008 - Sarabande.wav

Peak level 95.0 %
Extraction speed 6.0 X
Track quality 99.9 %
Test CRC 4F8ED885
Copy CRC 4F8ED885
Track not present in AccurateRip database
Copy OK

Track 11

Filename O:\DL\Pieter Wispelwey - JS Bach - 6 Suites For Cello Solo CD1 (2012) [FLAC]\11 - Suite no.2 in D minor BWV 1008 - Menuet I and II.wav

Peak level 95.0 %
Extraction speed 6.2 X
Track quality 100.0 %
Test CRC A164A4C2
Copy CRC A164A4C2
Track not present in AccurateRip database
Copy OK

Track 12

Filename O:\DL\Pieter Wispelwey - JS Bach - 6 Suites For Cello Solo CD1 (2012) [FLAC]\12 - Suite no.2 in D minor BWV 1008 - Gigue.wav

Peak level 95.0 %
Extraction speed 6.5 X
Track quality 100.0 %
Test CRC F02D92D5
Copy CRC F02D92D5
Track not present in AccurateRip database
Copy OK

Track 13

Filename O:\DL\Pieter Wispelwey - JS Bach - 6 Suites For Cello Solo CD1 (2012) [FLAC]\13 - Suite no.3 in C major BWV 1009 - Prelude.wav

Peak level 95.2 %
Extraction speed 6.7 X
Track quality 100.0 %
Test CRC 8DE1D8C4
Copy CRC 8DE1D8C4
Track not present in AccurateRip database
Copy OK

Track 14

Filename O:\DL\Pieter Wispelwey - JS Bach - 6 Suites For Cello Solo CD1 (2012) [FLAC]\14 - Suite no.3 in C major BWV 1009 - Allemande.wav

Peak level 95.0 %
Extraction speed 7.4 X
Track quality 100.0 %
Test CRC AE282574
Copy CRC AE282574
Track not present in AccurateRip database
Copy OK

Track 15

Filename O:\DL\Pieter Wispelwey - JS Bach - 6 Suites For Cello Solo CD1 (2012) [FLAC]\15 - Suite no.3 in C major BWV 1009 - Courante.wav

Peak level 95.0 %
Extraction speed 7.2 X
Track quality 100.0 %
Test CRC BA0D2EED
Copy CRC BA0D2EED
Track not present in AccurateRip database
Copy OK

Track 16

Filename O:\DL\Pieter Wispelwey - JS Bach - 6 Suites For Cello Solo CD1 (2012) [FLAC]\16 - Suite no.3 in C major BWV 1009 - Sarabande.wav

Peak level 95.0 %
Extraction speed 7.7 X
Track quality 100.0 %
Test CRC A22B0B37
Copy CRC A22B0B37
Track not present in AccurateRip database
Copy OK

Track 17

Filename O:\DL\Pieter Wispelwey - JS Bach - 6 Suites For Cello Solo CD1 (2012) [FLAC]\17 - Suite no.3 in C major BWV 1009 - Bourree I and II.wav

Peak level 95.0 %
Extraction speed 6.6 X
Track quality 99.9 %
Test CRC F5B6AC59
Copy CRC F5B6AC59
Track not present in AccurateRip database
Copy OK

Track 18

Filename O:\DL\Pieter Wispelwey - JS Bach - 6 Suites For Cello Solo CD1 (2012) [FLAC]\18 - Suite no.3 in C major BWV 1009 - Gigue.wav

Peak level 95.0 %
Extraction speed 7.6 X
Track quality 100.0 %
Test CRC 5A87BCFD
Copy CRC 5A87BCFD
Track not present in AccurateRip database
Copy OK


None of the tracks are present in the AccurateRip database

No errors occurred

End of status report

–– CUETools DB Plugin V2.1.3

[CTDB TOCID: awZmm8OZaIVp6fvbv79ssQn7.EI-] found, Submit result: awZmm8OZaIVp6fvbv79ssQn7.EI- has been confirmed
[39fd758e] (11/11) Accurately ripped


==== Log checksum 2564AA2589E38575D5A57BAFCA2D7D75FCB7FA9A25AD3D0C0CE5EA36ECFE9457 ====

Exact Audio Copy V1.0 beta 3 from 29. August 2011

EAC extraction logfile from 1. April 2013, 19:06

Pieter Wispelwey / JS Bach - 6 Suites For Cello Solo CD2

Used drive : PLEXTOR DVDR PX-860A Adapter: 0 ID: 0

Read mode : Secure
Utilize accurate stream : Yes
Defeat audio cache : Yes
Make use of C2 pointers : No

Read offset correction : 96
Overread into Lead-In and Lead-Out : No
Fill up missing offset samples with silence : Yes
Delete leading and trailing silent blocks : No
Null samples used in CRC calculations : Yes
Used interface : Native Win32 interface for Win NT & 2000
Gap handling : Appended to previous track

Used output format : User Defined Encoder
Selected bitrate : 1024 kBit/s
Quality : High
Add ID3 tag : No
Command line compressor : C:\Program Files\Exact Audio Copy\Flac\flac.exe
Additional command line options : -8 -V -T "ARTIST=%artist%" -T "TITLE=%title%" -T "ALBUM=%albumtitle%" -T "DATE=%year%" -T "TRACKNUMBER=%tracknr%" -T "GENRE=%genre%" -T "PERFORMER=%albuminterpret%" -T "COMPOSER=%composer%" %haslyrics%–tag-from-file=LYRICS="%lyricsfile%"%haslyrics% -T "ALBUMARTIST=%albumartist%" -T "DISCNUMBER=%cdnumber%" -T "TOTALDISCS=%totalcds%" -T "TOTALTRACKS=%numtracks%" -T "COMMENT=EAC Secure Mode, Test & Copy, AccurateRip, FLAC -8" %source% -o %dest%


TOC of the extracted CD

Track | Start | Length | Start sector | End sector
––––––––––––––––––––––––––––-
1 | 0:00.00 | 4:10.43 | 0 | 18792
2 | 4:10.43 | 4:09.23 | 18793 | 37490
3 | 8:19.66 | 3:06.38 | 37491 | 51478
4 | 11:26.29 | 4:33.55 | 51479 | 72008
5 | 16:00.09 | 4:24.41 | 72009 | 91849
6 | 20:24.50 | 2:58.67 | 91850 | 105266
7 | 23:23.42 | 5:19.02 | 105267 | 129193
8 | 28:42.44 | 4:45.41 | 129194 | 150609
9 | 33:28.10 | 2:03.74 | 150610 | 159908
10 | 35:32.09 | 3:41.03 | 159909 | 176486
11 | 39:13.12 | 4:27.66 | 176487 | 196577
12 | 43:41.03 | 2:13.03 | 196578 | 206555
13 | 45:54.06 | 4:48.71 | 206556 | 228226
14 | 50:43.02 | 7:58.40 | 228227 | 264116
15 | 58:41.42 | 3:32.44 | 264117 | 280060
16 | 62:14.11 | 5:50.12 | 280061 | 306322
17 | 68:04.23 | 4:09.06 | 306323 | 325003
18 | 72:13.29 | 4:07.09 | 325004 | 343537


Track 1

Filename O:\DL\Pieter Wispelwey - JS Bach - 6 Suites For Cello Solo CD2 (2012) [FLAC]\01 - Suite no.4 in E flat major BWV 1010 - Prelude.wav

Pre-gap length 0:00:02.00

Peak level 93.9 %
Extraction speed 4.6 X
Track quality 100.0 %
Test CRC 2DD2942E
Copy CRC 2DD2942E
Accurately ripped (confidence 2) [258A88C9] (AR v2)
Copy OK

Track 2

Filename O:\DL\Pieter Wispelwey - JS Bach - 6 Suites For Cello Solo CD2 (2012) [FLAC]\02 - Allemande.wav

Peak level 93.5 %
Extraction speed 4.6 X
Track quality 99.9 %
Test CRC 9A9BF101
Copy CRC 9A9BF101
Accurately ripped (confidence 2) [24771030] (AR v2)
Copy OK

Track 3

Filename O:\DL\Pieter Wispelwey - JS Bach - 6 Suites For Cello Solo CD2 (2012) [FLAC]\03 - Courante.wav

Peak level 91.8 %
Extraction speed 5.2 X
Track quality 100.0 %
Test CRC E1AA24F1
Copy CRC E1AA24F1
Accurately ripped (confidence 2) [9B3CD8C5] (AR v2)
Copy OK

Track 4

Filename O:\DL\Pieter Wispelwey - JS Bach - 6 Suites For Cello Solo CD2 (2012) [FLAC]\04 - Sarabande.wav

Peak level 94.0 %
Extraction speed 5.9 X
Track quality 100.0 %
Test CRC 2F0BE5D3
Copy CRC 2F0BE5D3
Accurately ripped (confidence 2) [2AF16BCC] (AR v2)
Copy OK

Track 5

Filename O:\DL\Pieter Wispelwey - JS Bach - 6 Suites For Cello Solo CD2 (2012) [FLAC]\05 - Bourree I and II.wav

Peak level 94.4 %
Extraction speed 6.1 X
Track quality 100.0 %
Test CRC 9CCE7F31
Copy CRC 9CCE7F31
Accurately ripped (confidence 2) [53E3BC77] (AR v2)
Copy OK

Track 6

Filename O:\DL\Pieter Wispelwey - JS Bach - 6 Suites For Cello Solo CD2 (2012) [FLAC]\06 - Gigue.wav

Peak level 93.5 %
Extraction speed 6.2 X
Track quality 100.0 %
Test CRC B1892D42
Copy CRC B1892D42
Accurately ripped (confidence 2) [E9C63AB7] (AR v2)
Copy OK

Track 7

Filename O:\DL\Pieter Wispelwey - JS Bach - 6 Suites For Cello Solo CD2 (2012) [FLAC]\07 - Suite no.5 in C minor BWV 1011 - Prelude.wav

Peak level 93.9 %
Extraction speed 6.3 X
Track quality 99.9 %
Test CRC 83FA8FD3
Copy CRC 83FA8FD3
Accurately ripped (confidence 2) [E08475FB] (AR v2)
Copy OK

Track 8

Filename O:\DL\Pieter Wispelwey - JS Bach - 6 Suites For Cello Solo CD2 (2012) [FLAC]\08 - Allemande.wav

Peak level 93.9 %
Extraction speed 7.2 X
Track quality 100.0 %
Test CRC 6368181F
Copy CRC 6368181F
Accurately ripped (confidence 2) [89CFFB67] (AR v2)
Copy OK

Track 9

Filename O:\DL\Pieter Wispelwey - JS Bach - 6 Suites For Cello Solo CD2 (2012) [FLAC]\09 - Courante.wav

Peak level 93.9 %
Extraction speed 6.4 X
Track quality 100.0 %
Test CRC 386FFD79
Copy CRC 386FFD79
Accurately ripped (confidence 2) [3AE80F49] (AR v2)
Copy OK

Track 10

Filename O:\DL\Pieter Wispelwey - JS Bach - 6 Suites For Cello Solo CD2 (2012) [FLAC]\10 - Sarabande.wav

Peak level 79.2 %
Extraction speed 7.3 X
Track quality 100.0 %
Test CRC 466E37C0
Copy CRC 466E37C0
Accurately ripped (confidence 2) [3E713E9A] (AR v2)
Copy OK

Track 11

Filename O:\DL\Pieter Wispelwey - JS Bach - 6 Suites For Cello Solo CD2 (2012) [FLAC]\11 - Gavotte I and II.wav

Peak level 93.9 %
Extraction speed 6.9 X
Track quality 99.9 %
Test CRC F0666334
Copy CRC F0666334
Accurately ripped (confidence 2) [466C9206] (AR v2)
Copy OK

Track 12

Filename O:\DL\Pieter Wispelwey - JS Bach - 6 Suites For Cello Solo CD2 (2012) [FLAC]\12 - Gigue.wav

Peak level 97.5 %
Extraction speed 7.0 X
Track quality 100.0 %
Test CRC DDFA3423
Copy CRC DDFA3423
Accurately ripped (confidence 2) [70845154] (AR v2)
Copy OK

Track 13

Filename O:\DL\Pieter Wispelwey - JS Bach - 6 Suites For Cello Solo CD2 (2012) [FLAC]\13 - Suite no.6 in D major (a cinq cordes) BWV 1012 - Prelude.wav

Peak level 99.5 %
Extraction speed 8.1 X
Track quality 100.0 %
Test CRC A36FF546
Copy CRC A36FF546
Accurately ripped (confidence 2) [83D8DE83] (AR v2)
Copy OK

Track 14

Filename O:\DL\Pieter Wispelwey - JS Bach - 6 Suites For Cello Solo CD2 (2012) [FLAC]\14 - Allemande.wav

Peak level 94.5 %
Extraction speed 8.8 X
Track quality 100.0 %
Test CRC 968B7028
Copy CRC 968B7028
Accurately ripped (confidence 2) [534E26BC] (AR v2)
Copy OK

Track 15

Filename O:\DL\Pieter Wispelwey - JS Bach - 6 Suites For Cello Solo CD2 (2012) [FLAC]\15 - Courante.wav

Peak level 98.1 %
Extraction speed 8.3 X
Track quality 100.0 %
Test CRC 9018E4E1
Copy CRC 9018E4E1
Accurately ripped (confidence 2) [B196103C] (AR v2)
Copy OK

Track 16

Filename O:\DL\Pieter Wispelwey - JS Bach - 6 Suites For Cello Solo CD2 (2012) [FLAC]\16 - Sarabande.wav

Peak level 99.5 %
Extraction speed 9.0 X
Track quality 100.0 %
Test CRC 67E2A2B1
Copy CRC 67E2A2B1
Accurately ripped (confidence 2) [BB770209] (AR v2)
Copy OK

Track 17

Filename O:\DL\Pieter Wispelwey - JS Bach - 6 Suites For Cello Solo CD2 (2012) [FLAC]\17 - Gavotte I and II.wav

Peak level 92.2 %
Extraction speed 8.8 X
Track quality 100.0 %
Test CRC 4D545221
Copy CRC 4D545221
Accurately ripped (confidence 2) [949CC337] (AR v2)
Copy OK

Track 18

Filename O:\DL\Pieter Wispelwey - JS Bach - 6 Suites For Cello Solo CD2 (2012) [FLAC]\18 - Gigue.wav

Peak level 85.7 %
Extraction speed 8.6 X
Track quality 100.0 %
Test CRC E5B83629
Copy CRC E5B83629
Accurately ripped (confidence 2) [A18D793B] (AR v2)
Copy OK


All tracks accurately ripped

No errors occurred

End of status report

–– CUETools DB Plugin V2.1.3

[CTDB TOCID: fArjEEDTjsH2ilhLxQydPJNq5Yk-] found, Submit result: fArjEEDTjsH2ilhLxQydPJNq5Yk- has been confirmed
[5d7eaf41] (10/10) Accurately ripped


==== Log checksum 2FEAC53D412BA235C6EEBA2D7A4F4FF603137EA4482A4C9347FA569D1B293A24 ====


Pieter Wispelwey - JS Bach - 6 Suites For Cello Solo (2012) [2CD+DVD] {EPR-Classic}

Pieter Wispelwey - JS Bach - 6 Suites For Cello Solo (2012) [2CD+DVD] {EPR-Classic}

Pieter Wispelwey - JS Bach - 6 Suites For Cello Solo (2012) [2CD+DVD] {EPR-Classic}

Pieter Wispelwey - JS Bach - 6 Suites For Cello Solo (2012) [2CD+DVD] {EPR-Classic}

Pieter Wispelwey - JS Bach - 6 Suites For Cello Solo (2012) [2CD+DVD] {EPR-Classic}

Pieter Wispelwey - JS Bach - 6 Suites For Cello Solo (2012) [2CD+DVD] {EPR-Classic}


Thanks to dtromp (CDs) & lopeck (DVD)!