(Fr5) Les derniers trésors d’Égypte (2011)

(Fr5) Les derniers trésors d’Égypte (2011)

(Fr5) Les derniers trésors d’Égypte (2011)
TNT-Rip by Clo2 | French | 1h24min | 704 x 304 | 25.000 fps | Avi | MPEG-4 XviD @ 845 Kbps | MP3 @ 112 Kbps | 582 MB
Genre : Documentaire

Après deux cents ans de fouilles archéologiques et plus de mille sept cents sites étudiés, on pensait que l’Égypte nous avait révélé ses plus grands mystères. C'était sans compter sur une toute autre dimension, l'archéologie de l'espace.

Les dernières technologies d'imagerie satellite mises au point par l'agence spatiale représentent une révolution pour le monde de l'archéologie.

Cette année, la BBC s'associe à ce projet exceptionnel pour scanner, de l'espace, la totalité du territoire égyptien. Et c'est un monde inconnu de l’Égypte antique qui s'offre à nous.

Depuis huit mois, trois mille nouveaux sites seraient en cours d'identification. Pyramides, palaces, temples, tombes et cités perdues seront scannés avec leurs alentours pour découvrir d'autres trésors.

Ainsi, sur le site d'Abidos, la mecque de l’Égypte ancienne, les images satellites ont permis de repérer deux nouvelles structures qui seront bientôt exhumées pour permettre peut être de retrouver l'un des sites funéraires des premiers rois de l’Égypte…

Sur le site de Hawara où se trouvait le temple mortuaire du pharaon Amenemhet III et dont il ne reste aujourd'hui plus rien, les images ont révélé un complexe en forme de labyrinthe évoqué dans les mythes grecs.

Vassil Dobrev, spécialiste bien connu du public Français, analysera les données fournies par ces technologies de l'espace.

Format : AVI
Format/Info : Audio Video Interleave
File size : 582 MiB
Duration : 1h 24mn
Overall bit rate : 967 Kbps
Writing application : VirtualDubMod 1.5.10.3 Fr | www.virtualdub-fr.org || (build 2550/release)
Writing library : VirtualDubMod build 2550/release

Video
ID : 0
Format : MPEG-4 Visual
Format profile : Advanced Simple@L5
Format settings, BVOP : 2
Format settings, QPel : No
Format settings, GMC : No warppoints
Format settings, Matrix : Default (H.263)
Muxing mode : Packed bitstream
Codec ID : XVID
Codec ID/Hint : XviD
Duration : 1h 24mn
Bit rate : 845 Kbps
Width : 704 pixels
Height : 304 pixels
Display aspect ratio : 2.35:1
Frame rate : 25.000 fps
Color space : YUV
Chroma subsampling : 4:2:0
Bit depth : 8 bits
Scan type : Progressive
Compression mode : Lossy
Bits/(Pixel*Frame) : 0.158
Stream size : 509 MiB (87%)
Writing library : XviD 64

Audio
ID : 1
Format : MPEG Audio
Format version : Version 1
Format profile : Layer 3
Mode : Joint stereo
Codec ID : 55
Codec ID/Hint : MP3
Duration : 1h 24mn
Bit rate mode : Constant
Bit rate : 112 Kbps
Channel(s) : 2 channels
Sampling rate : 48.0 KHz
Compression mode : Lossy
Stream size : 67.5 MiB (12%)
Alignment : Aligned on interleaves
Interleave, duration : 40 ms (1.00 video frame)
Interleave, preload duration : 504 ms
Writing library : LAME3.98r
Encoding settings : -m j -V 4 -q 3 -lowpass 15.6 -b 112


(Fr5) Les derniers trésors d’Égypte (2011)

(Fr5) Les derniers trésors d’Égypte (2011)

(Fr5) Les derniers trésors d’Égypte (2011)

No Pass ;)

Un merci ?

D'autres documentaires ? >> Listing des documentaires