Boyz II Men - II (1994) [DTS CD 5.1 Surround]

Boyz II Men - II (1994) [DTS CD 5.1 Surround]

Boyz II Men - II (1994) [DTS CD 5.1 Surround]
EAC Secure Rip | WAV (Image + Cue + Log) - 553 MB | Complete Scans (Jpeg 600 dpi) - 274 MB
R&B, Soul, Pop | Motown Records | 710215 1001 28 | 58:47 minutes | 5% WinRar Recovery | Hosted on: Uploaded & FilePost
<<< A DTS DIGITAL SURROUND DECODER IS REQUIRED >>>


II is the second studio album by Boyz II Men, released in August 1994 on Motown Records. It contained the No. 1 singles "I'll Make Love To You" and "On Bended Knee", the latter of which replaced the former at the top of the Billboard Hot 100, making the group the third artist to replace themselves at No. 1 in the US after Elvis Presley and The Beatles and the first to achieve the feat in 30 years.


With their second album, II, Boyz II Men assured their place at the top of the charts, as well as history. "I'll Make Love to You," the album's first single, stayed on the top of the charts for over two months, only to be unseated by "On Bended Knee," the album's second single. Not surprisingly, II is a carefully constructed crowd pleaser, accentuating all of the finest moments from their hit debut. While there are some high-energy dance tracks, the album's main strength is its slower numbers, where the group's vocals soar. Reviewed by Stephen Thomas Erlewine allmusic.com
Boyz II Men - II (1994) [DTS CD 5.1 Surround]



Exact Audio Copy V1.0 beta 2 from 29. April 2011

EAC extraction logfile from 15. November 2013, 22:08

Boyz II Men / II [20-Bit DTS CD]

Used drive : HL-DT-STBD-RE BH14NS40 Adapter: 0 ID: 2

Read mode : Secure
Utilize accurate stream : Yes
Defeat audio cache : Yes
Make use of C2 pointers : No

Read offset correction : 6
Overread into Lead-In and Lead-Out : No
Fill up missing offset samples with silence : Yes
Delete leading and trailing silent blocks : No
Null samples used in CRC calculations : Yes
Used interface : Native Win32 interface for Win NT & 2000

Used output format : Internal WAV Routines
Sample format : 44.100 Hz; 16 Bit; Stereo


TOC of the extracted CD

Track | Start | Length | Start sector | End sector
––––––––––––––––––––––––––––-
1 | 0:00.00 | 4:37.56 | 0 | 20830
2 | 4:37.56 | 4:50.44 | 20831 | 42624
3 | 9:28.25 | 4:49.13 | 42625 | 64312
4 | 14:17.38 | 4:35.00 | 64313 | 84937
5 | 18:52.38 | 4:35.37 | 84938 | 105599
6 | 23:28.00 | 6:16.38 | 105600 | 133837
7 | 29:44.38 | 1:41.05 | 133838 | 141417
8 | 31:25.43 | 5:24.42 | 141418 | 165759
9 | 36:50.10 | 3:55.03 | 165760 | 183387
10 | 40:45.13 | 5:29.05 | 183388 | 208067
11 | 46:14.18 | 5:57.62 | 208068 | 234904
12 | 52:12.05 | 3:23.08 | 234905 | 250137
13 | 55:35.13 | 3:11.27 | 250138 | 264489


Range status and errors

Selected range

Filename C:\EAC\Boyz II Men - (1994) II [20-Bit DTS CD]\Boyz II Men - II [20-Bit DTS CD].wav

Peak level 25.0 %
Extraction speed 6.1 X
Range quality 100.0 %
Test CRC DDDA387F
Copy CRC DDDA387F
Copy OK

No errors occurred


AccurateRip summary

Track 1 accurately ripped (confidence 2) [AEB4C3E8] (AR v2)
Track 2 accurately ripped (confidence 3) [B8C146E6] (AR v2)
Track 3 accurately ripped (confidence 3) [7BEFDE9D] (AR v2)
Track 4 accurately ripped (confidence 3) [9B5B1ADB] (AR v2)
Track 5 accurately ripped (confidence 3) [73A42562] (AR v2)
Track 6 accurately ripped (confidence 3) [6991129A] (AR v2)
Track 7 accurately ripped (confidence 3) [4732E7EF] (AR v2)
Track 8 accurately ripped (confidence 3) [D2E2C446] (AR v2)
Track 9 accurately ripped (confidence 3) [92AECE4F] (AR v2)
Track 10 accurately ripped (confidence 3) [F9D09772] (AR v2)
Track 11 accurately ripped (confidence 3) [2C517CBD] (AR v2)
Track 12 accurately ripped (confidence 3) [D25F3673] (AR v2)
Track 13 accurately ripped (confidence 3) [4FA94351] (AR v2)

All tracks accurately ripped

End of status report

==== Log checksum 7B2A040CF2F0D63FFF689A21CE7D9E64BEF28520E19AD5FF6053B938871D679F ====


Track Listing:

01. Thank You
02. All Around The World
03. U Know
04. Vibin'
05. I Sit Away
06. Jezzebel
07. Khalil (Interlude)
08. Trying Times
09. I'll Make Love To You
10. On Bended Knee
11. 50 Candles
12. Water Runs Dry
13. Yesterday


20 bit Digital Mastering by:

Brant S. Biles and Robert Margouleff

Mixed for 5.1 channel music surround at:

Enterprise Studios, Burbank, employing the Neve Capricorn desk and matching Genelec loudspeakers and M&K subwoofers

DTS Encoding:

Paul Smith, courtesy of DTS Technology, Westlake Village, California

Manufactured by:

Miller Nevada Ltd.

Quality assurance employs:

Krell KPS 20i CD player and the Millenium 2.4.6 DTS decoder


Album Released: August 30, 1994

DTS CD Released: November 25, 1997


foobar2000 1.2.9 / Dynamic Range Meter 1.1.0
log date: 2013-11-15 23:13:02

––––––––––––––––––––––––––––––––––––––––
Analyzed: Boyz II Men / II [20-Bit DTS CD]
––––––––––––––––––––––––––––––––––––––––

DR Peak RMS Duration Track
––––––––––––––––––––––––––––––––––––––––
DR14 -1.73 dB -18.00 dB 4:38 01-Thank You
DR14 -1.36 dB -16.92 dB 4:51 02-All Around The World
DR13 -1.99 dB -17.82 dB 4:49 03-U Know
DR14 -2.17 dB -18.44 dB 4:35 04-Vibin'
DR18 -0.20 dB -20.32 dB 4:35 05-I Sit Away
DR13 -1.15 dB -17.54 dB 6:17 06-Jezzebel
DR14 -0.08 dB -19.76 dB 1:41 07-Khalil (Interlude)
DR12 -0.69 dB -15.85 dB 5:25 08-Trying Times
DR12 -0.57 dB -16.63 dB 3:55 09-I'll Make Love To You
DR13 -1.89 dB -18.05 dB 5:29 10-On Bended Knee
DR12 -1.33 dB -18.08 dB 5:58 11-50 Candles
DR13 -2.11 dB -17.97 dB 3:23 12-Water Runs Dry
DR13 -1.02 dB -16.80 dB 3:11 13-Yesterday
––––––––––––––––––––––––––––––––––––––––

Number of tracks: 13
Official DR value: DR14

Samplerate: 44100 Hz
Channels: 2
Bits per sample: 16
Bitrate: 1411 kbps
Codec: PCM
================================================================================

Boyz II Men - II (1994) [DTS CD 5.1 Surround]


Boyz II Men - II (1994) [DTS CD 5.1 Surround]

<<< A DTS DIGITAL SURROUND DECODER IS REQUIRED >>>
DTS decoder for use with Foobar2000


Boyz II Men - II (1994) [DTS CD 5.1 Surround]

5% WinRar Recovery
If you experience any problems or broken links, PLEASE SEND PM to flac jacket.