Allan Holdsworth, Alan Pasqua, Jimmy Haslip, Chad Wackerman - Blues For Tony (2009)

3817630
Allan Holdsworth, Alan Pasqua, Jimmy Haslip, Chad Wackerman - Blues For Tony (2009)
EAC | Flac(Image) + Cue + Log & MP3 CBR 320Kbps
2CD | Moonjune, Records MJR029 | ~ 618 or 214 Mb | Scans(jpg) -> 32 Mb
Fusion / Free Jazz / Jazz-Rock

When drummer Tony Williams died of a heart attack on February 23, 1997, at the relatively young age of 51, it was a tremendous loss for straight-ahead post-bop and hard bop as well as for fusion. Williams had numerous acoustic jazz credentials (including his contributions to Miles Davis' legendary mid-‘60s quintet), and his band Lifetime was one of the most important fusion outfits of the ‘70s. The late drummer's fusion side is what electric guitarist Allan Holdsworth, electric bassist Jimmy Haslip (of Yellowjackets fame), keyboardist Alan Pasqua, and drummer Chad Wackerman pay tribute to on Blues for Tony, an excellent two-CD set that was recorded live in 2007. Forming a quartet, the improvisers remember Williams not by trying to sound like a carbon copy of Lifetime, but rather by celebrating the overall spirit of Williams' fusion output. Holdsworth, in fact, worked with Williams when he replaced John McLaughlin as Lifetime's guitarist in 1975; it was a brief association (Holdsworth left Lifetime the following year), although certainly a noteworthy one. And like Lifetime, this quartet (which performs mostly material by Holdsworth and Pasqua) demonstrates that being influenced by rock and funk and making extensive use of electric instruments doesn't mean that a group cannot maintain a jazz mentality. In fact, Blues for Tony thrives on a jazz mentality. Improvisation and spontaneity prevail, and even though Blues for Tony is by no means straight-ahead acoustic jazz, the quartet's amplified performances can easily be described as "the sound of surprise" (to borrow a term coined by the late jazz critic Whitney Balliett). These performances underscore the fact that – contrary to what myopic jazz purists and bop snobs would have us believe – fusion is not pseudo-jazz. Fusion is authentic jazz, but it's authentic jazz for people who also appreciate rock and funk. Blues for Tony is an album that fusion lovers shouldn't miss.

by Alex Henderson, AMG
3785972

Allan Holdsworth, Alan Pasqua, Jimmy Haslip, Chad Wackerman - Blues For Tony (2009):

3817631
Tracklist CD1:

01. Blues For Tony 11:12
02. The Fifth 8:58
03. It Must Be Jazz 8:38
04. Fred 9:56
05. Guitar Solo 3:35
06. Pud Wud 9:59

Exact Audio Copy V1.0 beta 3 from 29. August 2011

EAC extraction logfile from 6. November 2012, 17:31

Allan Holdsworth, Alan Pasqua, Jimmy Haslip, Chad Wackerman / Blues For Tony Disc 1

Used drive : HL-DT-STBDDVDRW GBC-H20N Adapter: 1 ID: 0

Read mode : Secure
Utilize accurate stream : Yes
Defeat audio cache : Yes
Make use of C2 pointers : No

Read offset correction : 667
Overread into Lead-In and Lead-Out : No
Fill up missing offset samples with silence : Yes
Delete leading and trailing silent blocks : No
Null samples used in CRC calculations : Yes
Used interface : Native Win32 interface for Win NT & 2000

Used output format : User Defined Encoder
Selected bitrate : 1024 kBit/s
Quality : High
Add ID3 tag : No
Command line compressor : C:\Program Files\Exact Audio Copy\wavpack.exe
Additional command line options : -hm %source% %dest%


TOC of the extracted CD

Track | Start | Length | Start sector | End sector
––––––––––––––––––––––––––––-
1 | 0:00.00 | 11:12.08 | 0 | 50407
2 | 11:12.08 | 8:58.35 | 50408 | 90792
3 | 20:10.43 | 8:38.32 | 90793 | 129674
4 | 28:49.00 | 9:55.54 | 129675 | 174353
5 | 38:44.54 | 3:34.67 | 174354 | 190470
6 | 42:19.46 | 9:59.19 | 190471 | 235414


Range status and errors

Selected range

Filename C:\Users\ProgDog\Music\ZALIVKI\Allan Holdsworth\Different Projects\2009 – Allan Holdsworth with Alan Pasqua, Chad Wackerman and Jimmy Haslip - Blues for Tony\Disc One\Allan Holdsworth, Alan Pasqua, Jimmy Haslip, Chad Wackerman - Blues For Tony

Peak level 94.4 %
Extraction speed 6.0 X
Range quality 100.0 %
Test CRC 8A8DBD37
Copy CRC 8A8DBD37
Copy OK

No errors occurred


AccurateRip summary

Track 1 accurately ripped (confidence 5) [9FDB2003] (AR v2)
Track 2 accurately ripped (confidence 5) [EFA9CBA1] (AR v2)
Track 3 accurately ripped (confidence 5) [6031869A] (AR v2)
Track 4 accurately ripped (confidence 5) [9DF8C8E8] (AR v2)
Track 5 accurately ripped (confidence 5) [C5AE15A1] (AR v2)
Track 6 accurately ripped (confidence 5) [4D12D397] (AR v2)

All tracks accurately ripped

End of status report

–– CUETools DB Plugin V2.1.3

[CTDB TOCID: 1iZEq1.EeEA1g55OoIQgUtmJGOU-] found, Submit result: 1iZEq1.EeEA1g55OoIQgUtmJGOU- has been confirmed
[6cd7d629] (21/21) Accurately ripped


==== Log checksum E5B4CC1D5B8CCE4AF8C2B87F5B445966CE74848C138D8459F2352AC2598BE90B ====

foobar2000 1.2.9 / Dynamic Range Meter 1.1.1
log date: 2015-12-22 17:49:54

––––––––––––––––––––––––––––––––––––––––
Analyzed: Allan Holdsworth, Alan Pasqua, Jimmy Haslip, Chad Wackerman / Blues For Tony CD1
––––––––––––––––––––––––––––––––––––––––

DR Peak RMS Duration Track
––––––––––––––––––––––––––––––––––––––––
DR9 -0.49 dB -11.33 dB 11:12 01-Blues For Tony
DR10 -0.50 dB -11.83 dB 8:58 02-The Fifth
DR9 -0.50 dB -11.96 dB 8:38 03-It Must Be Jazz
DR8 -0.50 dB -9.73 dB 9:56 04-Fred
DR11 -3.98 dB -21.76 dB 3:35 05-Guitar Solo
DR9 -0.50 dB -11.81 dB 9:59 06-Pud Wud
––––––––––––––––––––––––––––––––––––––––

Number of tracks: 6
Official DR value: DR9

Samplerate: 44100 Hz
Channels: 2
Bits per sample: 16
Bitrate: 922 kbps
Codec: FLAC

[CUETools log; Date: 22.12.2015 17:49:59; Version: 2.1.4]
[CTDB TOCID: 1iZEq1.EeEA1g55OoIQgUtmJGOU-] found.
Track | CTDB Status
1 | (16/16) Accurately ripped
2 | (16/16) Accurately ripped
3 | (16/16) Accurately ripped
4 | (16/16) Accurately ripped
5 | (16/16) Accurately ripped
6 | (16/16) Accurately ripped
[AccurateRip ID: 000d4acc-00457e9d-3e0c4206] found.
Track [ CRC | V2 ] Status
01 [36770385|9fdb2003] (17+25/44) Accurately ripped
02 [59667174|efa9cba1] (17+25/46) Accurately ripped
03 [fb615399|6031869a] (17+25/44) Accurately ripped
04 [7756cd2d|9df8c8e8] (17+25/44) Accurately ripped
05 [de06fdeb|c5ae15a1] (17+25/44) Accurately ripped
06 [69354f55|4d12d397] (15+25/42) Accurately ripped
Offsetted by -48:
01 [8af68635] (00/44) No match (V2 was not tested)
02 [265be098] (02/46) Accurately ripped
03 [00700a00] (00/44) No match (V2 was not tested)
04 [2ed58d00] (00/44) No match (V2 was not tested)
05 [cc4dbce2] (00/44) No match (V2 was not tested)
06 [c6cecbbc] (00/42) No match (V2 was not tested)
Offsetted by 6:
01 [6c71c6d4] (00/44) No match (V2 was not tested)
02 [56a31cf2] (00/46) No match (V2 was not tested)
03 [31fb5eee] (00/44) No match (V2 was not tested)
04 [f888670c] (00/44) No match (V2 was not tested)
05 [819a32c8] (00/44) No match (V2 was not tested)
06 [434ccdfb] (00/42) No match (V2 was not tested)

Track Peak [ CRC32 ] [W/O NULL] [ LOG ]
– 94,4 [8A8DBD37] [D1757A6F] CRC32
01 94,4 [96CA1BB5] [82E64481]
02 94,4 [3BCEB3D4] [BC503434]
03 94,4 [0008FEDF] [C688D032]
04 94,4 [CFC673C4] [BD198322]
05 63,2 [C0569CB7] [D50A275E]
06 94,4 [EAB7D92D] [6609D137]

3817632
Tracklist CD2:

01. Looking Glass 10:07
02. Piano Solo 4:51
03. San Michele 11:31
04. Proto-Cosmos 5:46
05. Red Alert 5:50

Exact Audio Copy V1.0 beta 3 from 29. August 2011

EAC extraction logfile from 6. November 2012, 17:48

Allan Holdsworth, Alan Pasqua, Jimmy Haslip, Chad Wackerman / Blues For Tony Disc 2

Used drive : HL-DT-STBDDVDRW GBC-H20N Adapter: 1 ID: 0

Read mode : Secure
Utilize accurate stream : Yes
Defeat audio cache : Yes
Make use of C2 pointers : No

Read offset correction : 667
Overread into Lead-In and Lead-Out : No
Fill up missing offset samples with silence : Yes
Delete leading and trailing silent blocks : No
Null samples used in CRC calculations : Yes
Used interface : Native Win32 interface for Win NT & 2000

Used output format : User Defined Encoder
Selected bitrate : 1024 kBit/s
Quality : High
Add ID3 tag : No
Command line compressor : C:\Program Files\Exact Audio Copy\wavpack.exe
Additional command line options : -hm %source% %dest%


TOC of the extracted CD

Track | Start | Length | Start sector | End sector
––––––––––––––––––––––––––––-
1 | 0:00.00 | 10:06.72 | 0 | 45521
2 | 10:06.72 | 4:50.60 | 45522 | 67331
3 | 14:57.57 | 11:30.68 | 67332 | 119149
4 | 26:28.50 | 5:45.69 | 119150 | 145093
5 | 32:14.44 | 5:49.44 | 145094 | 171312


Range status and errors

Selected range

Filename C:\Users\ProgDog\Music\ZALIVKI\Allan Holdsworth\Different Projects\2009 – Allan Holdsworth with Alan Pasqua, Chad Wackerman and Jimmy Haslip - Blues for Tony\Disc Two\Allan Holdsworth, Alan Pasqua, Jimmy Haslip, Chad Wackerman - Blues For Tony

Peak level 94.4 %
Extraction speed 5.5 X
Range quality 99.9 %
Test CRC DE09D4F5
Copy CRC DE09D4F5
Copy OK

No errors occurred


AccurateRip summary

Track 1 accurately ripped (confidence 4) [B53C1782] (AR v2)
Track 2 accurately ripped (confidence 4) [747E33AC] (AR v2)
Track 3 accurately ripped (confidence 4) [3A497C0B] (AR v2)
Track 4 accurately ripped (confidence 4) [892E27D6] (AR v2)
Track 5 accurately ripped (confidence 4) [9B056528] (AR v2)

All tracks accurately ripped

End of status report

–– CUETools DB Plugin V2.1.3

[CTDB TOCID: ttnmWnIt2jvjrjfuc9bdG.mTutY-] found, Submit result: ttnmWnIt2jvjrjfuc9bdG.mTutY- has been confirmed
[69a4b025] (19/19) Accurately ripped


==== Log checksum E9512D92BB312E45BDCDE4B47859281602886B0F6F0F0227F01D1B16247F4631 ====

foobar2000 1.2.9 / Dynamic Range Meter 1.1.1
log date: 2015-12-22 17:49:35

––––––––––––––––––––––––––––––––––––––––
Analyzed: Allan Holdsworth, Alan Pasqua, Jimmy Haslip, Chad Wackerman / Blues For Tony CD2
––––––––––––––––––––––––––––––––––––––––

DR Peak RMS Duration Track
––––––––––––––––––––––––––––––––––––––––
DR9 -0.50 dB -11.24 dB 10:07 01-Looking Glass
DR14 -3.07 dB -23.87 dB 4:51 02-Piano Solo
DR9 -0.50 dB -11.88 dB 11:31 03-San Michele
DR9 -0.50 dB -10.87 dB 5:46 04-Proto-Cosmos
DR8 -0.50 dB -10.04 dB 5:50 05-Red Alert
––––––––––––––––––––––––––––––––––––––––

Number of tracks: 5
Official DR value: DR10

Samplerate: 44100 Hz
Channels: 2
Bits per sample: 16
Bitrate: 908 kbps
Codec: FLAC

[CUETools log; Date: 22.12.2015 17:49:40; Version: 2.1.4]
[CTDB TOCID: ttnmWnIt2jvjrjfuc9bdG.mTutY-] found.
Track | CTDB Status
1 | (19/19) Accurately ripped
2 | (19/19) Accurately ripped
3 | (19/19) Accurately ripped
4 | (19/19) Accurately ripped
5 | (19/19) Accurately ripped
[AccurateRip ID: 00085e3b-00267f6d-4c08ec05] found.
Track [ CRC | V2 ] Status
01 [14ab6528|b53c1782] (07+17/42) Accurately ripped
02 [15adefae|747e33ac] (07+17/42) Accurately ripped
03 [e1872c56|3a497c0b] (07+17/42) Accurately ripped
04 [20f47a3c|892e27d6] (07+17/42) Accurately ripped
05 [17aaa40e|9b056528] (06+17/41) Accurately ripped
Offsetted by -18:
01 [a29665bf] (08/42) Accurately ripped
02 [e2719b42] (08/42) Accurately ripped
03 [09a1ada6] (08/42) Accurately ripped
04 [3a675ec8] (08/42) Accurately ripped
05 [f072106f] (08/41) Accurately ripped
Offsetted by -66:
01 [6a297d59] (00/42) No match (V2 was not tested)
02 [58b5e615] (00/42) No match (V2 was not tested)
03 [9503b774] (00/42) No match (V2 was not tested)
04 [8d29b6cb] (00/42) No match (V2 was not tested)
05 [ef197e6c] (00/41) No match (V2 was not tested)
Offsetted by 6:
01 [bc890942] (00/42) No match (V2 was not tested)
02 [4a1780e9] (00/42) No match (V2 was not tested)
03 [3467dd52] (00/42) No match (V2 was not tested)
04 [bda409f2] (00/42) No match (V2 was not tested)
05 [bc1b44b3] (00/41) No match (V2 was not tested)

Track Peak [ CRC32 ] [W/O NULL] [ LOG ]
– 94,4 [DE09D4F5] [1BBB4E6B] CRC32
01 94,4 [F6155165] [47D8D074]
02 70,1 [B262C07B] [C3ACE2E7]
03 94,4 [7D9A9852] [EE533833]
04 94,4 [DC8F13EE] [19724D63]
05 94,4 [4880F811] [94CFCA5A]

3817633
All thanks go to AD's

Allan Holdsworth in my Blog

Download Allan Holdsworth, Alan Pasqua, Jimmy Haslip, Chad Wackerman - Blues For Tony (2009):