History Channel - Ancient Aliens: The Mysterious Nine (2016)

History Channel - Ancient Aliens: The Mysterious Nine (2016)

History Channel - Ancient Aliens: The Mysterious Nine (2016)
HDTV | 1280x720 | .MKV/AVC @ 2468 Kbps | 41mn 59s | 874 MiB
Audio: English AC3 384 kbps, 6 channels | Subs: English
Genre: Documentary | History | Sci-Fi

In 2013, former Canadian Minister of Defense, Paul Hellyer, made a shocking claim–that there is a federation of extraterrestrial beings monitoring and guiding humanity. But why would such an esteemed politician make such a controversial announcement? Ancient Astronaut theorists believe evidence can be found throughout history to prove his claims are true. Stories of emperors, kings and pharaohs consulting a pantheon of nine gods can be found in virtually every culture across the globe. Even channeling sessions conducted by CIA scientists in the 1950s connected with an otherworldly group of entities called "The Nine" – extraterrestrials here to influence the events on Earth. Could there be an intergalactic council of nine secretly working behind the scenes, dictating the course of humanity?
More info


General
Unique ID : 245636730052018299754970986481379712753 (0xB8CBE9D396FF32DEABF200846BC01EF1)
Complete name : Ancient.Aliens.S11E08.The.Mysterious.Nine.mkv
Format : Matroska
Format version : Version 4 / Version 2
File size : 874 MiB
Duration : 41mn 59s
Overall bit rate : 2 910 Kbps

Video
ID : 1
Format : AVC
Format/Info : Advanced Video Codec
Format profile : High@L4.1
Format settings, CABAC : Yes
Format settings, ReFrames : 5 frames
Codec ID : V_MPEG4/ISO/AVC
Duration : 41mn 59s
Bit rate : 2 468 Kbps
Width : 1 280 pixels
Height : 720 pixels
Display aspect ratio : 16:9
Frame rate mode : Constant
Frame rate : 23.976 fps
Color space : YUV
Chroma subsampling : 4:2:0
Bit depth : 8 bits
Scan type : Progressive
Bits/(Pixel*Frame) : 0.112
Stream size : 741 MiB (85%)
Writing library : x264 core 148 r2705 3f5ed56
Encoding settings : cabac=1 / ref=5 / deblock=1:0:0 / analyse=0x3:0x113 / me=umh / subme=8 / psy=1 / psy_rd=1.00:0.00 / mixed_ref=1 / me_range=16 / chroma_me=1 / trellis=1 / 8x8dct=1 / cqm=0 / deadzone=21,11 / fast_pskip=1 / chroma_qp_offset=-2 / threads=12 / lookahead_threads=2 / sliced_threads=0 / nr=0 / decimate=1 / interlaced=0 / bluray_compat=0 / constrained_intra=0 / bframes=3 / b_pyramid=2 / b_adapt=2 / b_bias=0 / direct=3 / weightb=1 / open_gop=0 / weightp=2 / keyint=250 / keyint_min=23 / scenecut=40 / intra_refresh=0 / rc_lookahead=50 / rc=crf / mbtree=1 / crf=20.0 / qcomp=0.60 / qpmin=0 / qpmax=69 / qpstep=4 / ip_ratio=1.40 / aq=1:1.00
Default : Yes
Forced : No
Color range : Limited
Matrix coefficients : BT.709

Audio
ID : 2
Format : AC-3
Format/Info : Audio Coding 3
Mode extension : CM (complete main)
Format settings, Endianness : Big
Codec ID : A_AC3
Duration : 41mn 59s
Bit rate mode : Constant
Bit rate : 384 Kbps
Channel(s) : 6 channels
Channel positions : Front: L C R, Side: L R, LFE
Sampling rate : 48.0 KHz
Compression mode : Lossy
Stream size : 115 MiB (13%)
Default : Yes
Forced : No

Text
ID : 3
Format : UTF-8
Codec ID : S_TEXT/UTF8
Codec ID/Info : UTF-8 Plain Text
Language : English
Default : No
Forced : No


Screenshots:

History Channel - Ancient Aliens: The Mysterious Nine (2016)

History Channel - Ancient Aliens: The Mysterious Nine (2016)

History Channel - Ancient Aliens: The Mysterious Nine (2016)

History Channel - Ancient Aliens: The Mysterious Nine (2016)