Various Artists - Love Me or Leave Me: The Bethlehem Records Story 1958-1963 (2013) {3CD One Day Music DAY3CD040}

Various Artists - Love Me or Leave Me: The Bethlehem Records Story 1958-1963 (2013) {3CD One Day Music DAY3CD040}

Various Artists - Love Me or Leave Me: The Bethlehem Records Story 1958-1963 (2013) {3CD One Day Music DAY3CD040}
EAC rip (secure mode) | FLAC (tracks)+CUE+LOG -> 0.98 Gb | MP3 @320 -> 462 Mb
Full Artwork @ 300 dpi (jpg) -> 9 Mb | 5% repair rar
© 1958-62, 2013 Bethlehem Records / One Day Music / Not Now Music | DAY3CD040
Jazz / Cool / Bop / Others

An excellent budget compilation of the wonderful Bethlehem Records label - what a roster of artists they had. Very good sound too. The Bethlehem label focused on jazz releases, and this set collects some great examples of jazz–vocally and instrumentally–between the years 1958-62. One look at the artists on this 60 track 2 CD set shows how many fine artists released music on the label. Like other collections from One Day Music, there's no booklet, only a short paragraph about the label and a few of the featured artists. The digitally remastered sound is good overall within the limits of recording styles of the era.

A listen to the artists on Disc 1 will give you a good idea of what's here. Nina Simone's "Love Me Or Leave Me" is simply beautiful. Sal Salvador's guitar does justice to "You Stepped Out Of A Dream". "Hold It Right There" by Eddie "Cleanhead" Vinson is a typically fine swinging, jazzy vocal over a great arrangement. From there it's uptown with Johnny Hartman's "Stella By Starlight". Then a young Mel Torme does a swinging "Cheek To Cheek".

Various Artists - Love Me or Leave Me: The Bethlehem Records Story 1958-1963 (2013) {3CD One Day Music DAY3CD040}


And so it continues through roughly three hours of great jazz over the three discs. There's good stuff by Julie London, Conte Candoli, Carmen McRae, Dexter Gordon, Bobby Troupe, J.J. Johnson, Oscar Pettiford, and several other artists. But lesser known performers like Socolow, The Six, Guitar Crusher, Sallie Blair, Bud Freeman, and a number of others all contribute some good period jazz.

This set collects tracks from 1958 through 1962, when jazz was still close to it's peak of "popularity". Jazz fans will find many good/great performances here. One Day Music has released many multi-disc sets focusing on a particular record label and period. Of the releases focusing on jazz, this is one of the best, or maybe the best, of the lot. Listening to a couple of these discs at one sitting, you begin to feel closer to that whole period in America when jazz was very popular–similar to the feel of the 30 disc set on Charlie Parker Records, which has a number of jazz artists (vocalists and instrumentalists) from that era. But that's another story.

Some of these tunes you'll recognize, others possibly not. And it's those lesser known performances that help put this collection at the top of the heap of similar releases. Fans of 1950's jazz styles should give this a listen.
Various Artists - Love Me or Leave Me: The Bethlehem Records Story 1958-1963 (2013) {3CD One Day Music DAY3CD040}

In its brief but brightly blazing life, Bethlehem Records helped launch and/or advance the careers of many great names in jazz and contemporary music. It was founded like so many American labels of the time by an immigrant from Europe – in this case one Gustav ‘Gus’ Wildi. He had been born and raised in Switzerland, arriving in the States in the early Fifties.

His initial intention was to release pop records, but the influence of a young music-student friend called Creed Taylor – later of course to found his own CTI label – decided to focus on jazz. Wildi’s label would be defined by two factors: a willingness to grant the artist complete creative freedom, and the distinctive album artwork designed by Burt Goldblatt that gave Bethlehem an identity all its own.

The label was founded in New York in 1954 and released albums in the then-standard 10-inch format. The name Bethlehem was chosen from a list of possibles; founder Wildi revealed to Tyler Alpern in a series of fascinating interviews (see www.tyleralpern.com) that it stemmed from researches he’d done into the US steel industry. So the Bethlehem Steel Corporation of Bethlehem, Pennsylvania was the catalyst, rather than the ‘little town’ of nativity renown. He admitted, however, that it crossed his mind to call the roster ‘The Stars of Bethlehem’…but this was dropped when they decided to concentrate on jazz.

One major early project was the George Gershwin opera ‘Porgy And Bess’, a three-album multi-artist set recorded in California. It was the second complete recording of the work, the first having been in 1951, and featured jazz singers and musicians rather than opera singers and an orchestra. Mel Tormé sang the role of Porgy and Frances Faye was Bess; other singers included Johnny Hartman, Betty Roche and Sallie Blair, all of whom have contributed singles to our compilation.

Gus Wildi who saw his role ‘mostly as facilitator’ was wise enough to have a number of knowledgeable lieutenants to guide him: in addition to Creed Taylor, who left in 1956, he employed producer/A&R man Red Clyde to run the West Coast operation, while Sy Oliver acted as musical director. From 1955 onwards, most of the recording was done in Los Angeles rather than New York City.

The roster was a mix of new, hitherto unknown and established artists. Music student Eunice Waymon from Tyron, North Carolina, became Nina Simone when performing in extra-curricular fashion in Atlantic City as a pianist-singer. Her first LP for Bethlehem was acclaimed one of the all-time great jazz albums (though, typically, Nina preferred the term ‘Black Classical Music’). She moved on and soon signed with Columbia Pictures’ larger Colpix label.

Mel Tormé, in contrast, was already an established artist on the Coral label when he was attracted to join Bethlehem. He was attracted by the label’s philosophies – not to mention a wish list of star performers. ‘Red Clyde and I had dined, and he told me he was going to sign Dizzy (GIllespie) and Duke Ellington and Sarah Vaughan, and I felt that was the place for me.’

Tormé would record a staggering seven albums for the label in the years 1955-57, with assistance from pianist/composer/arranger Marty Paich. It proved a profitable spell, for he left Bethlehem having graduated from the pop crooner class to become a jazz singer.

Another artist who used Bethlehem as a stepping-stone was Julie London. The former actress famed for ‘Cry Me A River’ made her first four recordings for Bethlehem; they were released in 1955 on an album, ‘Bethlehem’s Girlfriends’, along with material by Chris Connor and Carmen McRae, but she had moved to Liberty by the time her first album was released later in 1955. (Bobby Troup, also present here, was her husband.)

The original Bethlehem albums are much prized by collectors today thanks to the artwork created by Burt Goldblatt. He, like the musicians, was given unprecedented freedom to create, and his stylish matte-finish artwork was designed to have an impact on prospective buyers flipping through the LP sleeves at the record shop. His trademark was eschewing the four-colour approach and making his point with a limited palette.

Bethlehem Records had been distributed by King, a company with its own manufacturing and distribution facilities, and Gus Wildi had relinquished 50 per cent of his label’s ownership as part of the deal. When he ran into trouble in 1962, King took control of the catalogue. This has since passed through many hands, but the music has never lost its lustre.

This was proved in 1987 when ‘My Baby Just Cares For Me’, a track recorded by Nina Simone for Bethlehem nearly three decades previously, became an enormous and unexpected UK hit after its use in a TV advertising campaign for Chanel No 5 perfume.

Enjoy the sweet smell of Bethlehem…
Various Artists - Love Me or Leave Me: The Bethlehem Records Story 1958-1963 (2013) {3CD One Day Music DAY3CD040}


tracklist & personnel:
CD1

01 - Nina Simone - Love Me Or Leave Me
02 - Sal Salvador - You Stepped Out Of A Dream
03 - Eddie ''Cleanhead'' Vinson - Hold It Right There
04 - Johnny Hartman - Stella By Starlight
05 - Mel Torme - Cheek To Cheek
06 - Socolow - My Heart Stood Still
07 - Julie London - A Foggy Day
08 - Conte Candoli - They Can't Take That Away From Me
09 - Pat Moran Quartet - What A Difference A Day Makes
10 - Herbie Mann - Love Is A Simple Thing
11 - Jazz City Workshop - Autumn Leaves
12 - Carmen McRae - Tip Toe Gently
13 - Art Blakey & The Jazz Messengers - Right Down Front
14 - Oscar Pettiford - Jack The Bear
15 - The Six - Itchy Fingers
16 - Betty Blake Grant & Rand - Let There Be Love
17 - Dexter Gordon & Vernon Duke - Autumn In New York
18 - Charles Mingus - 51st Street Blues
19 - Zoot Sims Count Basie & Harry Edison - Jive At Five
20 - Sonny Thompson - Loco Limbo

Various Artists - Love Me or Leave Me: The Bethlehem Records Story 1958-1963 (2013) {3CD One Day Music DAY3CD040}


CD2
01 - Mel Torme - Lulu's Back In Town
02 - Nina Simone - My Baby Just Cares For Me
03 - Dexter Gordon - Darn That Dream
04 - Betty Roche - September In The Rain
05 - Guitar Crusher - I Feel The Pain
06 - Chris Connor - All This And Heaven Too
07 - Bobby Troup - Jamboree Jones
08 - The Six - Shifty
09 - J.J. Johnson - Mad About The Boy
10 - Duke Ellington - Ko-Ko
11 - Audrey Morris - If You Could See Me Now
12 - Lenny Johnson - Walk Ginny Walk
13 - Pat Moran Quartet - Lullaby Of The Leaves
14 - Johnny Hartman - September Song
15 - Charlie Shavers & Maxine Sullivan - Windy
16 - Sallie Blair - Then I'll Be Tired Of You
17 - Joe Derise - A Fine Romance
18 - Betty Blake - Out Of This World
19 - Sal Salvador - I Cover The Waterfront
20 - Pete Brown - The World Is Waiting For The Sunrise

Various Artists - Love Me or Leave Me: The Bethlehem Records Story 1958-1963 (2013) {3CD One Day Music DAY3CD040}


CD3
01 - Bobby Troup - That Old Black Magic
02 - Betty Roche - Summertime
03 - Sal Salvador - I Love You
04 - Conte Candoli - I Can't Get Started With You
05 - Julie London - You're Blase
06 - Herbie Mann - Chicken Little
07 - Mel Torme - Let's Call The Whole Thing Off
08 - Carmen McRae Girard - If I'm Lucky
09 - Zoot Sims - Doggin' Around
10 - Guitar Crusher - I Once Loved You Baby
11 - Chris Connor - How Long Has This Been Going On
12 - Johnny Richards - For All We Know
13 - Oscar Pettiford - Scorpio
14 - Ruby Braff - This Can't Be Love
15 - Charlie Shavers - But Not For Me
16 - Paula Castle - Why Can't I
17 - Jack Teagarden - Original Dixieland One Step
18 - Nina Simone - Central Park Blues
19 - Bud Freeman - Newport News
20 - Sallie Blair - Come By Sunday

Various Artists - Love Me or Leave Me: The Bethlehem Records Story 1958-1963 (2013) {3CD One Day Music DAY3CD040}


Exact Audio Copy V1.0 beta 3 from 29. August 2011

EAC extraction logfile from 28. September 2013, 7:36

Various Artists / The Bethlehem Records Story (Disc 1 of 3)

Used drive : ATAPI DVD A DH16ABSH Adapter: 2 ID: 1

Read mode : Secure
Utilize accurate stream : Yes
Defeat audio cache : Yes
Make use of C2 pointers : No

Read offset correction : 6
Overread into Lead-In and Lead-Out : No
Fill up missing offset samples with silence : Yes
Delete leading and trailing silent blocks : No
Null samples used in CRC calculations : Yes
Used interface : Native Win32 interface for Win NT & 2000
Gap handling : Appended to previous track

Used output format : User Defined Encoder
Selected bitrate : 128 kBit/s
Quality : High
Add ID3 tag : No
Command line compressor : C:\Program Files (x86)\Exact Audio Copy\FLAC\FLAC.EXE
Additional command line options : -8 -V -T "ARTIST=%artist%" -T "TITLE=%title%" -T "ALBUM=%albumtitle%" -T "DATE=%year%" -T "TRACKNUMBER=%tracknr%" -T "TOTALTRACKS=%numtracks%" -T "GENRE=%genre%" -T "ALBUMARTIST=%albumartist%" -T "ALBUM ARTIST=%albumartist%" -T "COMMENT=EAC Secure Mode, Test & Copy, AccurateRip, FLAC -8" %source%


TOC of the extracted CD

Track | Start | Length | Start sector | End sector
––––––––––––––––––––––––––––-
1 | 0:00.00 | 3:22.51 | 0 | 15200
2 | 3:22.51 | 3:29.61 | 15201 | 30936
3 | 6:52.37 | 2:29.30 | 30937 | 42141
4 | 9:21.67 | 3:48.00 | 42142 | 59241
5 | 13:09.67 | 3:01.42 | 59242 | 72858
6 | 16:11.34 | 3:15.41 | 72859 | 87524
7 | 19:27.00 | 3:18.10 | 87525 | 102384
8 | 22:45.10 | 3:11.70 | 102385 | 116779
9 | 25:57.05 | 2:03.30 | 116780 | 126034
10 | 28:00.35 | 2:00.65 | 126035 | 135099
11 | 30:01.25 | 3:15.47 | 135100 | 149771
12 | 33:16.72 | 2:39.53 | 149772 | 161749
13 | 35:56.50 | 4:31.61 | 161750 | 182135
14 | 40:28.36 | 3:17.25 | 182136 | 196935
15 | 43:45.61 | 2:57.52 | 196936 | 210262
16 | 46:43.38 | 1:57.25 | 210263 | 219062
17 | 48:40.63 | 6:29.69 | 219063 | 248306
18 | 55:10.57 | 5:47.71 | 248307 | 274402
19 | 60:58.53 | 5:17.27 | 274403 | 298204
20 | 66:16.05 | 2:30.72 | 298205 | 309526


Track 1

Filename G:\Uploads\P\Various Artists - The Bethlehem Records Story (2013) [FLAC]\Disc 1 of 3\01 - Nina Simone - Love Me Or Leave Me.wav

Pre-gap length 0:00:02.00

Peak level 98.6 %
Extraction speed 1.9 X
Track quality 100.0 %
Test CRC 54601773
Copy CRC 54601773
Track not present in AccurateRip database
Copy OK

Track 2

Filename G:\Uploads\P\Various Artists - The Bethlehem Records Story (2013) [FLAC]\Disc 1 of 3\02 - Sal Salvador - You Stepped Out Of A Dream.wav

Pre-gap length 0:00:01.58

Peak level 98.4 %
Extraction speed 1.5 X
Track quality 99.9 %
Test CRC DC9EB252
Copy CRC DC9EB252
Track not present in AccurateRip database
Copy OK

Track 3

Filename G:\Uploads\P\Various Artists - The Bethlehem Records Story (2013) [FLAC]\Disc 1 of 3\03 - Eddie ''Cleanhead'' Vinson - Hold It Right There.wav

Pre-gap length 0:00:01.58

Peak level 98.4 %
Extraction speed 1.3 X
Track quality 99.9 %
Test CRC C95A6533
Copy CRC C95A6533
Track not present in AccurateRip database
Copy OK

Track 4

Filename G:\Uploads\P\Various Artists - The Bethlehem Records Story (2013) [FLAC]\Disc 1 of 3\04 - Johnny Hartman - Stella By Starlight.wav

Pre-gap length 0:00:01.58

Peak level 98.2 %
Extraction speed 2.3 X
Track quality 100.0 %
Test CRC D6530D69
Copy CRC D6530D69
Track not present in AccurateRip database
Copy OK

Track 5

Filename G:\Uploads\P\Various Artists - The Bethlehem Records Story (2013) [FLAC]\Disc 1 of 3\05 - Mel Torme - Cheek To Cheek.wav

Pre-gap length 0:00:01.58

Peak level 98.3 %
Extraction speed 1.6 X
Track quality 99.9 %
Test CRC FD6EC4B1
Copy CRC FD6EC4B1
Track not present in AccurateRip database
Copy OK

Track 6

Filename G:\Uploads\P\Various Artists - The Bethlehem Records Story (2013) [FLAC]\Disc 1 of 3\06 - Socolow - My Heart Stood Still.wav

Pre-gap length 0:00:01.58

Peak level 98.3 %
Extraction speed 1.7 X
Track quality 99.9 %
Test CRC D0971C37
Copy CRC D0971C37
Track not present in AccurateRip database
Copy OK

Track 7

Filename G:\Uploads\P\Various Artists - The Bethlehem Records Story (2013) [FLAC]\Disc 1 of 3\07 - Julie London - A Foggy Day.wav

Pre-gap length 0:00:01.58

Peak level 98.3 %
Extraction speed 2.7 X
Track quality 100.0 %
Test CRC F8EC1141
Copy CRC F8EC1141
Track not present in AccurateRip database
Copy OK

Track 8

Filename G:\Uploads\P\Various Artists - The Bethlehem Records Story (2013) [FLAC]\Disc 1 of 3\08 - Conte Candoli - They Can't Take That Away From Me.wav

Pre-gap length 0:00:01.58

Peak level 98.3 %
Extraction speed 2.7 X
Track quality 100.0 %
Test CRC 0C9EDD36
Copy CRC 0C9EDD36
Track not present in AccurateRip database
Copy OK

Track 9

Filename G:\Uploads\P\Various Artists - The Bethlehem Records Story (2013) [FLAC]\Disc 1 of 3\09 - Pat Moran Quartet - What A Difference A Day Makes.wav

Pre-gap length 0:00:01.58

Peak level 98.3 %
Extraction speed 2.6 X
Track quality 100.0 %
Test CRC 20980E8B
Copy CRC 20980E8B
Track not present in AccurateRip database
Copy OK

Track 10

Filename G:\Uploads\P\Various Artists - The Bethlehem Records Story (2013) [FLAC]\Disc 1 of 3\10 - Herbie Mann - Love Is A Simple Thing.wav

Pre-gap length 0:00:01.58

Peak level 98.4 %
Extraction speed 2.3 X
Track quality 100.0 %
Test CRC BFF0B96E
Copy CRC BFF0B96E
Track not present in AccurateRip database
Copy OK

Track 11

Filename G:\Uploads\P\Various Artists - The Bethlehem Records Story (2013) [FLAC]\Disc 1 of 3\11 - Jazz City Workshop - Autumn Leaves.wav

Pre-gap length 0:00:01.58

Peak level 98.3 %
Extraction speed 2.8 X
Track quality 100.0 %
Test CRC 42E020CB
Copy CRC 42E020CB
Track not present in AccurateRip database
Copy OK

Track 12

Filename G:\Uploads\P\Various Artists - The Bethlehem Records Story (2013) [FLAC]\Disc 1 of 3\12 - Carmen McRae - Tip Toe Gently.wav

Pre-gap length 0:00:01.58

Peak level 98.4 %
Extraction speed 2.0 X
Track quality 99.9 %
Test CRC 19977E1C
Copy CRC 19977E1C
Track not present in AccurateRip database
Copy OK

Track 13

Filename G:\Uploads\P\Various Artists - The Bethlehem Records Story (2013) [FLAC]\Disc 1 of 3\13 - Art Blakey & The Jazz Messengers - Right Down Front.wav

Pre-gap length 0:00:01.58

Peak level 98.3 %
Extraction speed 3.2 X
Track quality 100.0 %
Test CRC ABA983F2
Copy CRC ABA983F2
Track not present in AccurateRip database
Copy OK

Track 14

Filename G:\Uploads\P\Various Artists - The Bethlehem Records Story (2013) [FLAC]\Disc 1 of 3\14 - Oscar Pettiford - Jack The Bear.wav

Pre-gap length 0:00:01.58

Peak level 98.4 %
Extraction speed 3.3 X
Track quality 100.0 %
Test CRC E183336C
Copy CRC E183336C
Track not present in AccurateRip database
Copy OK

Track 15

Filename G:\Uploads\P\Various Artists - The Bethlehem Records Story (2013) [FLAC]\Disc 1 of 3\15 - The Six - Itchy Fingers.wav

Pre-gap length 0:00:01.58

Peak level 98.4 %
Extraction speed 3.4 X
Track quality 100.0 %
Test CRC 9E27C847
Copy CRC 9E27C847
Track not present in AccurateRip database
Copy OK

Track 16

Filename G:\Uploads\P\Various Artists - The Bethlehem Records Story (2013) [FLAC]\Disc 1 of 3\16 - Betty Blake Grant & Rand - Let There Be Love.wav

Pre-gap length 0:00:01.58

Peak level 98.3 %
Extraction speed 3.1 X
Track quality 100.0 %
Test CRC E5E32FCA
Copy CRC E5E32FCA
Track not present in AccurateRip database
Copy OK

Track 17

Filename G:\Uploads\P\Various Artists - The Bethlehem Records Story (2013) [FLAC]\Disc 1 of 3\17 - Dexter Gordon & Vernon Duke - Autumn In New York.wav

Pre-gap length 0:00:01.58

Peak level 98.3 %
Extraction speed 3.9 X
Track quality 100.0 %
Test CRC 602279BD
Copy CRC 602279BD
Track not present in AccurateRip database
Copy OK

Track 18

Filename G:\Uploads\P\Various Artists - The Bethlehem Records Story (2013) [FLAC]\Disc 1 of 3\18 - Charles Mingus - 51st Street Blues.wav

Pre-gap length 0:00:01.58

Peak level 98.6 %
Extraction speed 3.1 X
Track quality 99.9 %
Test CRC 1907B5E8
Copy CRC 1907B5E8
Track not present in AccurateRip database
Copy OK

Track 19

Filename G:\Uploads\P\Various Artists - The Bethlehem Records Story (2013) [FLAC]\Disc 1 of 3\19 - Zoot Sims Count Basie & Harry Edison - Jive At Five.wav

Pre-gap length 0:00:01.58

Peak level 98.4 %
Extraction speed 3.2 X
Track quality 99.9 %
Test CRC 7475E192
Copy CRC 7475E192
Track not present in AccurateRip database
Copy OK

Track 20

Filename G:\Uploads\P\Various Artists - The Bethlehem Records Story (2013) [FLAC]\Disc 1 of 3\20 - Sonny Thompson - Loco Limbo.wav

Pre-gap length 0:00:01.58

Peak level 98.3 %
Extraction speed 3.8 X
Track quality 100.0 %
Test CRC 49433E1D
Copy CRC 49433E1D
Track not present in AccurateRip database
Copy OK


None of the tracks are present in the AccurateRip database

No errors occurred

End of status report

==== Log checksum 741F401094FBF12F658CC0A773CED99D66EC69E76393E82B31A06B594F5A3AEA ====

Exact Audio Copy V1.0 beta 3 from 29. August 2011

EAC extraction logfile from 28. September 2013, 8:35

Various Artists / The Bethlehem Records Story (Disc 2 of 3)

Used drive : ATAPI DVD A DH16ABSH Adapter: 2 ID: 1

Read mode : Secure
Utilize accurate stream : Yes
Defeat audio cache : Yes
Make use of C2 pointers : No

Read offset correction : 6
Overread into Lead-In and Lead-Out : No
Fill up missing offset samples with silence : Yes
Delete leading and trailing silent blocks : No
Null samples used in CRC calculations : Yes
Used interface : Native Win32 interface for Win NT & 2000
Gap handling : Appended to previous track

Used output format : User Defined Encoder
Selected bitrate : 128 kBit/s
Quality : High
Add ID3 tag : No
Command line compressor : C:\Program Files (x86)\Exact Audio Copy\FLAC\FLAC.EXE
Additional command line options : -8 -V -T "ARTIST=%artist%" -T "TITLE=%title%" -T "ALBUM=%albumtitle%" -T "DATE=%year%" -T "TRACKNUMBER=%tracknr%" -T "TOTALTRACKS=%numtracks%" -T "GENRE=%genre%" -T "ALBUMARTIST=%albumartist%" -T "ALBUM ARTIST=%albumartist%" -T "COMMENT=EAC Secure Mode, Test & Copy, AccurateRip, FLAC -8" %source%


TOC of the extracted CD

Track | Start | Length | Start sector | End sector
––––––––––––––––––––––––––––-
1 | 0:00.00 | 3:07.51 | 0 | 14075
2 | 3:07.51 | 3:37.67 | 14076 | 30417
3 | 6:45.43 | 4:20.66 | 30418 | 49983
4 | 11:06.34 | 3:51.15 | 49984 | 67323
5 | 14:57.49 | 2:30.22 | 67324 | 78595
6 | 17:27.71 | 3:30.08 | 78596 | 94353
7 | 20:58.04 | 2:55.16 | 94354 | 107494
8 | 23:53.20 | 3:34.06 | 107495 | 123550
9 | 27:27.26 | 3:34.48 | 123551 | 139648
10 | 31:01.74 | 2:44.09 | 139649 | 151957
11 | 33:46.08 | 2:26.14 | 151958 | 162921
12 | 36:12.22 | 2:19.19 | 162922 | 173365
13 | 38:31.41 | 3:15.39 | 173366 | 188029
14 | 41:47.05 | 3:52.06 | 188030 | 205435
15 | 45:39.11 | 3:18.16 | 205436 | 220301
16 | 48:57.27 | 2:50.29 | 220302 | 233080
17 | 51:47.56 | 2:11.73 | 233081 | 242978
18 | 53:59.54 | 2:35.03 | 242979 | 254606
19 | 56:34.57 | 3:42.71 | 254607 | 271327
20 | 60:17.53 | 2:23.37 | 271328 | 282089


Track 1

Filename G:\Uploads\P\Various Artists - The Bethlehem Records Story (2013) [FLAC]\Disc 2 of 3\01 - Mel Torme - Lulu's Back In Town.wav

Pre-gap length 0:00:02.00

Peak level 96.2 %
Extraction speed 1.8 X
Track quality 100.0 %
Test CRC F7C92AB0
Copy CRC F7C92AB0
Track not present in AccurateRip database
Copy OK

Track 2

Filename G:\Uploads\P\Various Artists - The Bethlehem Records Story (2013) [FLAC]\Disc 2 of 3\02 - Nina Simone - My Baby Just Cares For Me.wav

Pre-gap length 0:00:01.58

Peak level 98.3 %
Extraction speed 2.0 X
Track quality 100.0 %
Test CRC 0956AE18
Copy CRC 0956AE18
Track not present in AccurateRip database
Copy OK

Track 3

Filename G:\Uploads\P\Various Artists - The Bethlehem Records Story (2013) [FLAC]\Disc 2 of 3\03 - Dexter Gordon - Darn That Dream.wav

Pre-gap length 0:00:01.58

Peak level 98.2 %
Extraction speed 2.3 X
Track quality 100.0 %
Test CRC F091116F
Copy CRC F091116F
Track not present in AccurateRip database
Copy OK

Track 4

Filename G:\Uploads\P\Various Artists - The Bethlehem Records Story (2013) [FLAC]\Disc 2 of 3\04 - Betty Roche - September In The Rain.wav

Pre-gap length 0:00:01.58

Peak level 98.5 %
Extraction speed 2.4 X
Track quality 100.0 %
Test CRC 16EE7CD6
Copy CRC 16EE7CD6
Track not present in AccurateRip database
Copy OK

Track 5

Filename G:\Uploads\P\Various Artists - The Bethlehem Records Story (2013) [FLAC]\Disc 2 of 3\05 - Guitar Crusher - I Feel The Pain.wav

Pre-gap length 0:00:01.58

Peak level 98.6 %
Extraction speed 2.4 X
Track quality 100.0 %
Test CRC C82A03E0
Copy CRC C82A03E0
Track not present in AccurateRip database
Copy OK

Track 6

Filename G:\Uploads\P\Various Artists - The Bethlehem Records Story (2013) [FLAC]\Disc 2 of 3\06 - Chris Connor - All This And Heaven Too.wav

Pre-gap length 0:00:01.58

Peak level 98.2 %
Extraction speed 2.6 X
Track quality 100.0 %
Test CRC F4373A73
Copy CRC F4373A73
Track not present in AccurateRip database
Copy OK

Track 7

Filename G:\Uploads\P\Various Artists - The Bethlehem Records Story (2013) [FLAC]\Disc 2 of 3\07 - Bobby Troup - Jamboree Jones.wav

Pre-gap length 0:00:01.58

Peak level 98.5 %
Extraction speed 2.6 X
Track quality 100.0 %
Test CRC 630E7896
Copy CRC 630E7896
Track not present in AccurateRip database
Copy OK

Track 8

Filename G:\Uploads\P\Various Artists - The Bethlehem Records Story (2013) [FLAC]\Disc 2 of 3\08 - The Six - Shifty.wav

Pre-gap length 0:00:01.58

Peak level 98.4 %
Extraction speed 2.8 X
Track quality 100.0 %
Test CRC 536A5FE9
Copy CRC 536A5FE9
Track not present in AccurateRip database
Copy OK

Track 9

Filename G:\Uploads\P\Various Artists - The Bethlehem Records Story (2013) [FLAC]\Disc 2 of 3\09 - J.J. Johnson - Mad About The Boy.wav

Pre-gap length 0:00:01.58

Peak level 98.3 %
Extraction speed 2.9 X
Track quality 100.0 %
Test CRC 1015C6DE
Copy CRC 1015C6DE
Track not present in AccurateRip database
Copy OK

Track 10

Filename G:\Uploads\P\Various Artists - The Bethlehem Records Story (2013) [FLAC]\Disc 2 of 3\10 - Duke Ellington - Ko-Ko.wav

Pre-gap length 0:00:01.58

Peak level 98.3 %
Extraction speed 2.9 X
Track quality 100.0 %
Test CRC CB1CC5CC
Copy CRC CB1CC5CC
Track not present in AccurateRip database
Copy OK

Track 11

Filename G:\Uploads\P\Various Artists - The Bethlehem Records Story (2013) [FLAC]\Disc 2 of 3\11 - Audrey Morris - If You Could See Me Now.wav

Pre-gap length 0:00:01.58

Peak level 98.3 %
Extraction speed 2.9 X
Track quality 100.0 %
Test CRC 7875B0D1
Copy CRC 7875B0D1
Track not present in AccurateRip database
Copy OK

Track 12

Filename G:\Uploads\P\Various Artists - The Bethlehem Records Story (2013) [FLAC]\Disc 2 of 3\12 - Lenny Johnson - Walk Ginny Walk.wav

Pre-gap length 0:00:01.58

Peak level 98.2 %
Extraction speed 2.9 X
Track quality 100.0 %
Test CRC 13FF7081
Copy CRC 13FF7081
Track not present in AccurateRip database
Copy OK

Track 13

Filename G:\Uploads\P\Various Artists - The Bethlehem Records Story (2013) [FLAC]\Disc 2 of 3\13 - Pat Moran Quartet - Lullaby Of The Leaves.wav

Pre-gap length 0:00:01.58

Peak level 98.6 %
Extraction speed 2.2 X
Track quality 99.9 %
Test CRC 18988D40
Copy CRC 18988D40
Track not present in AccurateRip database
Copy OK

Track 14

Filename G:\Uploads\P\Various Artists - The Bethlehem Records Story (2013) [FLAC]\Disc 2 of 3\14 - Johnny Hartman - September Song.wav

Pre-gap length 0:00:01.58

Peak level 98.4 %
Extraction speed 2.5 X
Track quality 99.9 %
Test CRC CB51FA72
Copy CRC CB51FA72
Track not present in AccurateRip database
Copy OK

Track 15

Filename G:\Uploads\P\Various Artists - The Bethlehem Records Story (2013) [FLAC]\Disc 2 of 3\15 - Charlie Shavers & Maxine Sullivan - Windy.wav

Pre-gap length 0:00:01.58

Peak level 98.6 %
Extraction speed 2.4 X
Track quality 99.9 %
Test CRC E56BC233
Copy CRC E56BC233
Track not present in AccurateRip database
Copy OK

Track 16

Filename G:\Uploads\P\Various Artists - The Bethlehem Records Story (2013) [FLAC]\Disc 2 of 3\16 - Sallie Blair - Then I'll Be Tired Of You.wav

Pre-gap length 0:00:01.58

Peak level 98.4 %
Extraction speed 3.4 X
Track quality 100.0 %
Test CRC BAE3091D
Copy CRC BAE3091D
Track not present in AccurateRip database
Copy OK

Track 17

Filename G:\Uploads\P\Various Artists - The Bethlehem Records Story (2013) [FLAC]\Disc 2 of 3\17 - Joe Derise - A Fine Romance.wav

Pre-gap length 0:00:01.58

Peak level 98.3 %
Extraction speed 3.3 X
Track quality 100.0 %
Test CRC 27E75FF4
Copy CRC 27E75FF4
Track not present in AccurateRip database
Copy OK

Track 18

Filename G:\Uploads\P\Various Artists - The Bethlehem Records Story (2013) [FLAC]\Disc 2 of 3\18 - Betty Blake - Out Of This World.wav

Pre-gap length 0:00:01.58

Peak level 98.4 %
Extraction speed 2.2 X
Track quality 99.9 %
Test CRC F7EDDFE9
Copy CRC F7EDDFE9
Track not present in AccurateRip database
Copy OK

Track 19

Filename G:\Uploads\P\Various Artists - The Bethlehem Records Story (2013) [FLAC]\Disc 2 of 3\19 - Sal Salvador - I Cover The Waterfront.wav

Pre-gap length 0:00:01.58

Peak level 98.3 %
Extraction speed 3.7 X
Track quality 100.0 %
Test CRC CFB696A1
Copy CRC CFB696A1
Track not present in AccurateRip database
Copy OK

Track 20

Filename G:\Uploads\P\Various Artists - The Bethlehem Records Story (2013) [FLAC]\Disc 2 of 3\20 - Pete Brown - The World Is Waiting For The Sunrise.wav

Pre-gap length 0:00:01.58

Peak level 98.6 %
Extraction speed 3.5 X
Track quality 100.0 %
Test CRC 2788DB27
Copy CRC 2788DB27
Track not present in AccurateRip database
Copy OK


None of the tracks are present in the AccurateRip database

No errors occurred

End of status report

==== Log checksum 36EE2B18A73201358C89FE69802C6643BB909C863E510F1A37B35B916A736B1B ====

Exact Audio Copy V1.0 beta 3 from 29. August 2011

EAC extraction logfile from 28. September 2013, 10:21

Various Artists / The Bethlehem Records Story (Disc 3 of 3)

Used drive : ATAPI DVD A DH16ABSH Adapter: 2 ID: 1

Read mode : Secure
Utilize accurate stream : Yes
Defeat audio cache : Yes
Make use of C2 pointers : No

Read offset correction : 6
Overread into Lead-In and Lead-Out : No
Fill up missing offset samples with silence : Yes
Delete leading and trailing silent blocks : No
Null samples used in CRC calculations : Yes
Used interface : Native Win32 interface for Win NT & 2000
Gap handling : Appended to previous track

Used output format : User Defined Encoder
Selected bitrate : 128 kBit/s
Quality : High
Add ID3 tag : No
Command line compressor : C:\Program Files (x86)\Exact Audio Copy\FLAC\FLAC.EXE
Additional command line options : -8 -V -T "ARTIST=%artist%" -T "TITLE=%title%" -T "ALBUM=%albumtitle%" -T "DATE=%year%" -T "TRACKNUMBER=%tracknr%" -T "TOTALTRACKS=%numtracks%" -T "GENRE=%genre%" -T "ALBUMARTIST=%albumartist%" -T "ALBUM ARTIST=%albumartist%" -T "COMMENT=EAC Secure Mode, Test & Copy, AccurateRip, FLAC -8" %source%


TOC of the extracted CD

Track | Start | Length | Start sector | End sector
––––––––––––––––––––––––––––-
1 | 0:00.00 | 4:31.35 | 0 | 20359
2 | 4:31.35 | 3:50.21 | 20360 | 37630
3 | 8:21.56 | 3:13.40 | 37631 | 52145
4 | 11:35.21 | 2:56.62 | 52146 | 65407
5 | 14:32.08 | 3:30.67 | 65408 | 81224
6 | 18:03.00 | 2:59.43 | 81225 | 94692
7 | 21:02.43 | 3:28.11 | 94693 | 110303
8 | 24:30.54 | 3:16.07 | 110304 | 125010
9 | 27:46.61 | 4:37.67 | 125011 | 145852
10 | 32:24.53 | 2:30.15 | 145853 | 157117
11 | 34:54.68 | 2:33.57 | 157118 | 168649
12 | 37:28.50 | 3:18.63 | 168650 | 183562
13 | 40:47.38 | 3:45.71 | 183563 | 200508
14 | 44:33.34 | 2:37.74 | 200509 | 212357
15 | 47:11.33 | 3:20.30 | 212358 | 227387
16 | 50:31.63 | 3:01.69 | 227388 | 241031
17 | 53:33.57 | 3:14.71 | 241032 | 255652
18 | 56:48.53 | 3:07.42 | 255653 | 269719
19 | 59:56.20 | 2:38.33 | 269720 | 281602
20 | 62:34.53 | 2:38.32 | 281603 | 293484


Track 1

Filename G:\Uploads\P\Various Artists - The Bethlehem Records Story (2013) [FLAC]\Disc 3 of 3\01 - Bobby Troup - That Old Black Magic.wav

Pre-gap length 0:00:02.00

Peak level 98.3 %
Extraction speed 2.0 X
Track quality 100.0 %
Test CRC CCAD880B
Copy CRC CCAD880B
Track not present in AccurateRip database
Copy OK

Track 2

Filename G:\Uploads\P\Various Artists - The Bethlehem Records Story (2013) [FLAC]\Disc 3 of 3\02 - Betty Roche - Summertime.wav

Pre-gap length 0:00:01.58

Peak level 98.3 %
Extraction speed 2.1 X
Track quality 100.0 %
Test CRC DBB5E824
Copy CRC DBB5E824
Track not present in AccurateRip database
Copy OK

Track 3

Filename G:\Uploads\P\Various Artists - The Bethlehem Records Story (2013) [FLAC]\Disc 3 of 3\03 - Sal Salvador - I Love You.wav

Pre-gap length 0:00:01.58

Peak level 98.4 %
Extraction speed 1.9 X
Track quality 99.9 %
Test CRC 66ACCD81
Copy CRC 66ACCD81
Track not present in AccurateRip database
Copy OK

Track 4

Filename G:\Uploads\P\Various Artists - The Bethlehem Records Story (2013) [FLAC]\Disc 3 of 3\04 - Conte Candoli - I Can't Get Started With You.wav

Pre-gap length 0:00:01.58

Peak level 98.4 %
Extraction speed 2.3 X
Track quality 100.0 %
Test CRC 7D9B264D
Copy CRC 7D9B264D
Track not present in AccurateRip database
Copy OK

Track 5

Filename G:\Uploads\P\Various Artists - The Bethlehem Records Story (2013) [FLAC]\Disc 3 of 3\05 - Julie London - You're Blase.wav

Pre-gap length 0:00:01.58

Peak level 98.3 %
Extraction speed 2.5 X
Track quality 100.0 %
Test CRC C362C0DF
Copy CRC C362C0DF
Track not present in AccurateRip database
Copy OK

Track 6

Filename G:\Uploads\P\Various Artists - The Bethlehem Records Story (2013) [FLAC]\Disc 3 of 3\06 - Herbie Mann - Chicken Little.wav

Pre-gap length 0:00:01.58

Peak level 98.7 %
Extraction speed 2.6 X
Track quality 100.0 %
Test CRC D125F5D4
Copy CRC D125F5D4
Track not present in AccurateRip database
Copy OK

Track 7

Filename G:\Uploads\P\Various Artists - The Bethlehem Records Story (2013) [FLAC]\Disc 3 of 3\07 - Mel Torme - Let's Call The Whole Thing Off.wav

Pre-gap length 0:00:01.58

Peak level 98.4 %
Extraction speed 2.3 X
Track quality 99.9 %
Test CRC DFA51CA9
Copy CRC DFA51CA9
Track not present in AccurateRip database
Copy OK

Track 8

Filename G:\Uploads\P\Various Artists - The Bethlehem Records Story (2013) [FLAC]\Disc 3 of 3\08 - Carmen McRae Girard - If I'm Lucky.wav

Pre-gap length 0:00:01.58

Peak level 98.3 %
Extraction speed 2.8 X
Track quality 100.0 %
Test CRC 1BBFCFD3
Copy CRC 1BBFCFD3
Track not present in AccurateRip database
Copy OK

Track 9

Filename G:\Uploads\P\Various Artists - The Bethlehem Records Story (2013) [FLAC]\Disc 3 of 3\09 - Zoot Sims - Doggin' Around.wav

Pre-gap length 0:00:01.58

Peak level 98.3 %
Extraction speed 2.7 X
Track quality 99.9 %
Test CRC A26C01A5
Copy CRC A26C01A5
Track not present in AccurateRip database
Copy OK

Track 10

Filename G:\Uploads\P\Various Artists - The Bethlehem Records Story (2013) [FLAC]\Disc 3 of 3\10 - Guitar Crusher - I Once Loved You Baby.wav

Pre-gap length 0:00:01.58

Peak level 98.6 %
Extraction speed 2.9 X
Track quality 100.0 %
Test CRC 9BC04493
Copy CRC 9BC04493
Track not present in AccurateRip database
Copy OK

Track 11

Filename G:\Uploads\P\Various Artists - The Bethlehem Records Story (2013) [FLAC]\Disc 3 of 3\11 - Chris Connor - How Long Has This Been Going On.wav

Pre-gap length 0:00:01.58

Peak level 98.3 %
Extraction speed 3.0 X
Track quality 100.0 %
Test CRC 3C3C632F
Copy CRC 3C3C632F
Track not present in AccurateRip database
Copy OK

Track 12

Filename G:\Uploads\P\Various Artists - The Bethlehem Records Story (2013) [FLAC]\Disc 3 of 3\12 - Johnny Richards - For All We Know.wav

Pre-gap length 0:00:01.58

Peak level 98.4 %
Extraction speed 2.8 X
Track quality 99.9 %
Test CRC 623CDAFF
Copy CRC 623CDAFF
Track not present in AccurateRip database
Copy OK

Track 13

Filename G:\Uploads\P\Various Artists - The Bethlehem Records Story (2013) [FLAC]\Disc 3 of 3\13 - Oscar Pettiford - Scorpio.wav

Pre-gap length 0:00:01.58

Peak level 98.3 %
Extraction speed 3.4 X
Track quality 100.0 %
Test CRC 926F6BB5
Copy CRC 926F6BB5
Track not present in AccurateRip database
Copy OK

Track 14

Filename G:\Uploads\P\Various Artists - The Bethlehem Records Story (2013) [FLAC]\Disc 3 of 3\14 - Ruby Braff - This Can't Be Love.wav

Pre-gap length 0:00:01.58

Peak level 98.4 %
Extraction speed 3.2 X
Track quality 100.0 %
Test CRC 6C0E6362
Copy CRC 6C0E6362
Track not present in AccurateRip database
Copy OK

Track 15

Filename G:\Uploads\P\Various Artists - The Bethlehem Records Story (2013) [FLAC]\Disc 3 of 3\15 - Charlie Shavers - But Not For Me.wav

Pre-gap length 0:00:01.58

Peak level 98.4 %
Extraction speed 3.4 X
Track quality 100.0 %
Test CRC 1E97B3F9
Copy CRC 1E97B3F9
Track not present in AccurateRip database
Copy OK

Track 16

Filename G:\Uploads\P\Various Artists - The Bethlehem Records Story (2013) [FLAC]\Disc 3 of 3\16 - Paula Castle - Why Can't I.wav

Pre-gap length 0:00:01.58

Peak level 98.3 %
Extraction speed 3.0 X
Track quality 99.9 %
Test CRC D45C6262
Copy CRC D45C6262
Track not present in AccurateRip database
Copy OK

Track 17

Filename G:\Uploads\P\Various Artists - The Bethlehem Records Story (2013) [FLAC]\Disc 3 of 3\17 - Jack Teagarden - Original Dixieland One Step.wav

Pre-gap length 0:00:01.58

Peak level 98.4 %
Extraction speed 3.6 X
Track quality 100.0 %
Test CRC 160E46FE
Copy CRC 160E46FE
Track not present in AccurateRip database
Copy OK

Track 18

Filename G:\Uploads\P\Various Artists - The Bethlehem Records Story (2013) [FLAC]\Disc 3 of 3\18 - Nina Simone - Central Park Blues.wav

Pre-gap length 0:00:01.58

Peak level 98.2 %
Extraction speed 3.1 X
Track quality 99.9 %
Test CRC F1641939
Copy CRC F1641939
Track not present in AccurateRip database
Copy OK

Track 19

Filename G:\Uploads\P\Various Artists - The Bethlehem Records Story (2013) [FLAC]\Disc 3 of 3\19 - Bud Freeman - Newport News.wav

Pre-gap length 0:00:01.58

Peak level 98.4 %
Extraction speed 3.6 X
Track quality 100.0 %
Test CRC 72AC328B
Copy CRC 72AC328B
Track not present in AccurateRip database
Copy OK

Track 20

Filename G:\Uploads\P\Various Artists - The Bethlehem Records Story (2013) [FLAC]\Disc 3 of 3\20 - Sallie Blair - Come By Sunday.wav

Pre-gap length 0:00:01.58

Peak level 98.8 %
Extraction speed 3.7 X
Track quality 100.0 %
Test CRC 6D4D5FD6
Copy CRC 6D4D5FD6
Track not present in AccurateRip database
Copy OK


None of the tracks are present in the AccurateRip database

No errors occurred

End of status report

==== Log checksum 12A86BA8C67FCA152DE3E74329BE7E9B2814CB9D57B3F0E35F1ACBD8A6731C8D ====


Various Artists - Love Me or Leave Me: The Bethlehem Records Story 1958-1963 (2013) {3CD One Day Music DAY3CD040}


All thanks goes to the original releaser!

Terry Pollard - Terry Pollard (1955) {2014 Japanese Bethlehem Album Collection 1000}
Bobby Scott - The Compositions Of Bobby Scott (1955) {2014 Japanese Bethlehem Album Collection 1000}
George Wein And The Storyville Sextet - Metronome Presents Jazz At The Modern (1960) {2014 Japanese Bethlehem Album Collection 1000}
Herbie Harper - Herbie Harper (1955) {2014 Japanese Bethlehem Album Collection 1000}
Humphrey Lyttelton - Humph Plays Standards (1960) {2014 Japanese Bethlehem Album Collection 1000}
Stan Levey - Plays The Composition Of Cooper, Holman and Guiffre (1954) {2014 Japanese Bethlehem Album Collection 1000}

John Coltrane - The Bethlehem Years (1957) [2CD] {2014 Japanese Bethlehem Album Collection 1000}
Bobby Scott - Great Scott (1954) {2014 Japanese Bethlehem Album Collection 1000}
Charlie Mingus - The Jazz Experiments Of Charlie Mingus (1954) {2014 Japanese Bethlehem Album Collection 1000}
Teddy Charles - On Campus! Ivy League Jazz Concert (1959) {2014 Japanese Bethlehem Album Collection 1000}
Russ Garcia - Wigville (1955) {2014 Japanese Bethlehem Album Collection 1000}
Milt Hinton - East Coast Jazz Series No.5 +1 (1955) {2014 Japanese Bethlehem Album Collection 1000}

Urbie Green - Urbie: East Coast Jazz Series No.6 (1955) {2014 Japanese Bethlehem Album Collection 1000}
Sam Most - I'm Nuts About The Most….Sam That Is! (1955) {2014 Japanese Bethlehem Album Collection 1000}
Charlie Shavers - Gershwin, Shavers & Strings (1954) {2014 Japanese Bethlehem Album Collection 1000}
The Six - The Six (1955) {2014 Japanese Bethlehem Album Collection 1000}
Jack Teagarden - Jazz Great (1954) {2014 Japanese Bethlehem Album Collection 1000}
The Six - The View From Jazzbo's Head (1956) {2014 Japanese Bethlehem Album Collection 1000}

Howard McGhee - Life Is Just A Bowl Of Cherries (1956) {2014 Japanese Bethlehem Album Collection 1000}
Osie Johnson - The Happy Jazz Of Osie Johnson (1955) {2014 Japanese Bethlehem Album Collection 1000}
Ralph Burns And His Ensemble - Bijou (1955) {2014 Japanese Bethlehem Album Collection 1000}
Sam Most - Sam Most Plays Bird, Bud, Monk and Miles (1957) {2014 Japan Bethlehem Album Collection 1000}
Sam Most - The Amazing Mr. Sam Most (1957) {2014 Japan Bethlehem Album Collection 1000}

The Australian Jazz Quartet - The Australian Jazz Quartet/Quintet (1956) {2014 Japan Bethlehem Album Collection 1000}
The Australian Jazz Quartet - The Australian Jazz Quartet (1955) {2014 Japan Bethlehem Album Collection 1000}
Sam Most - Musically Yours (1956) {2014 Japan Bethlehem Album Collection 1000}
The Australian Jazz Quintet - At The Varsity Drag (1956) {2014 Japan Bethlehem Album Collection 1000}
The Australian Jazz Quintet - The Australian Jazz Quintet +1 (1957) {2014 Japan Bethlehem Album Collection 1000}

The Australian Jazz Quintet - Selections Of Rodgers & Hammerstein (1957) {2014 Japan Bethlehem Album Collection 1000}
The Australian Jazz Quintet - In Free Style (1958) {2014 Japan Bethlehem Album Collection 1000}
Teddy Charles - Salute To Hamp (1958) {2014 Japan Bethlehem Album Collection 1000}
Dave McKenna & Hal Overton - Dual Piano Jazz (1960) {2014 Japan Bethlehem Album Collection 1000}
Charlie Shavers - The Most Intimate (1955) {2014 Japan Bethlehem Album Collection 1000}

Russ Garcia & His Vocal Choir And Orchestra - Sounds In The Night (1957) {2014 Japan Bethlehem Album Collection 1000}
Azie Mortimer ft. Phil Woods - Feeling Of Jazz (1963) {2014 Japan Bethlehem Album Collection 1000 CDSOL-6154}

Don Elliott - Mellophone (1955) {2013 Japan Bethlehem Album Collection 1000 Series CDSOL-6098}
Ruby Braff - The Complete Bethlehem Recordings (1954-1955) {2CD 2011 Solar Records}


NEXT -> More Bethlehem Album Collection on the way…