Dustin Lynch - Current Mood (2017)

Dustin Lynch - Current Mood (2017)

Dustin Lynch - Current Mood (2017)
XLD Rip | FLAC (Tracks) +cue, log - 336 MB | 00:43:39
Country, Pop, Pop Rock | Label: Broken Bow Records

The third album from the country music artist. Only in country music does an artist reveal their new album with a party at an acclaimed distillery, and that's precisely what Dustin Lynch and his team did for the official unveiling of Current Mood, at the George Dickel Distillery. The location was fitting as much as it was exciting; seeing as the country star grew up just minutes from the famous distillery in his native Tullahoma, Tenn., bringing his career full circle as he pulled back the curtain on a special project created from a compilation of growth, friendships and even heartache. "I went about this album in a completely different way than I've done the previous two," he explains. "It was kind of a slow process. I wanted each song to be special to not only me, but also the producer. It's a collection of songs and a chapter of my life that I'm proud of and excited to share."

TRACKLIST

01. I'd Be Jealous Too
02. Seein' Red
03. Small Town Boy
04. Why We Call Each Other
05. Here We Come
06. Love Me Or Leave Me Alone (feat. Karen Fairchild)
07. Back On It
08. I Wish You Were Beer
09. State Lines
10. Party Song
11. New Girl
12. Why Not Tonight
13. Sun Don't Go Down On That

X Lossless Decoder version 20170729 (150.3)

XLD extraction logfile from 2017-10-09 11:36:39 -0400

Dustin Lynch / Current Mood

Used drive : TSSTcorp BDDVDW SE-506AB (revision TS01)
Media type : Pressed CD

Ripper mode : XLD Secure Ripper
Disable audio cache : OK for the drive with a cache less than 1375KiB
Make use of C2 pointers : NO
Read offset correction : 6
Max retry count : 20
Gap status : Analyzed, Appended

TOC of the extracted CD
Track | Start | Length | Start sector | End sector
––––––––––––––––––––––––––––-
1 | 00:00:00 | 03:06:48 | 0 | 13997
2 | 03:06:48 | 03:14:16 | 13998 | 28563
3 | 06:20:64 | 03:26:07 | 28564 | 44020
4 | 09:46:71 | 03:21:67 | 44021 | 59162
5 | 13:08:63 | 03:25:21 | 59163 | 74558
6 | 16:34:09 | 04:05:38 | 74559 | 92971
7 | 20:39:47 | 03:29:67 | 92972 | 108713
8 | 24:09:39 | 03:07:15 | 108714 | 122753
9 | 27:16:54 | 03:11:59 | 122754 | 137137
10 | 30:28:38 | 03:13:11 | 137138 | 151623
11 | 33:41:49 | 03:39:65 | 151624 | 168113
12 | 37:21:39 | 03:06:42 | 168114 | 182105
13 | 40:28:06 | 03:26:66 | 182106 | 197621

AccurateRip Summary
Disc not found in AccurateRip DB.

All Tracks
Album gain : -9.09 dB
Peak : 1.000000
Statistics
Read error : 0
Jitter error (maybe fixed) : 0
Retry sector count : 0
Damaged sector count : 0

Track 01
Filename : /Volumes/NAS/Temporary/01 - I'd Be Jealous Too.flac
Pre-gap length : 00:02:00

Track gain : -9.23 dB
Peak : 1.000000
CRC32 hash (test run) : 2025AED3
CRC32 hash : 2025AED3
CRC32 hash (skip zero) : 5E124A54
AccurateRip v1 signature : 463FF110
AccurateRip v2 signature : 39D984E4
->Track not present in AccurateRip database.
Statistics
Read error : 0
Jitter error (maybe fixed) : 0
Retry sector count : 0
Damaged sector count : 0

Track 02
Filename : /Volumes/NAS/Temporary/02 - Seein' Red.flac
Pre-gap length : 00:00:70

Track gain : -9.76 dB
Peak : 1.000000
CRC32 hash (test run) : C0B827E4
CRC32 hash : C0B827E4
CRC32 hash (skip zero) : F351AD66
AccurateRip v1 signature : 93177F4E
AccurateRip v2 signature : 28E8E31A
->Track not present in AccurateRip database.
Statistics
Read error : 0
Jitter error (maybe fixed) : 0
Retry sector count : 0
Damaged sector count : 0

Track 03
Filename : /Volumes/NAS/Temporary/03 - Small Town Boy.flac
Pre-gap length : 00:00:12

Track gain : -8.20 dB
Peak : 0.946869
CRC32 hash (test run) : 7E387579
CRC32 hash : 7E387579
CRC32 hash (skip zero) : C5D2FD5A
AccurateRip v1 signature : 03E590D4
AccurateRip v2 signature : E4222D83
->Track not present in AccurateRip database.
Statistics
Read error : 0
Jitter error (maybe fixed) : 0
Retry sector count : 0
Damaged sector count : 0

Track 04
Filename : /Volumes/NAS/Temporary/04 - Why We Call Each Other.flac
Pre-gap length : 00:00:27

Track gain : -9.02 dB
Peak : 1.000000
CRC32 hash (test run) : 9BCD90F7
CRC32 hash : 9BCD90F7
CRC32 hash (skip zero) : 804E8278
AccurateRip v1 signature : 923E79DA
AccurateRip v2 signature : BD458D68
->Track not present in AccurateRip database.
Statistics
Read error : 0
Jitter error (maybe fixed) : 0
Retry sector count : 0
Damaged sector count : 0

Track 05
Filename : /Volumes/NAS/Temporary/05 - Here We Come.flac
Pre-gap length : 00:01:40

Track gain : -9.61 dB
Peak : 0.922424
CRC32 hash (test run) : 688C51D5
CRC32 hash : 688C51D5
CRC32 hash (skip zero) : 2E731183
AccurateRip v1 signature : 6BF105B4
AccurateRip v2 signature : 35BA4309
->Track not present in AccurateRip database.
Statistics
Read error : 0
Jitter error (maybe fixed) : 0
Retry sector count : 0
Damaged sector count : 0

Track 06
Filename : /Volumes/NAS/Temporary/06 - Love Me Or Leave Me Alone.flac
Pre-gap length : 00:01:25

Track gain : -9.63 dB
Peak : 1.000000
CRC32 hash (test run) : 9ED7E88A
CRC32 hash : 9ED7E88A
CRC32 hash (skip zero) : 21FAFBB0
AccurateRip v1 signature : D6F97F98
AccurateRip v2 signature : 93FA3F05
->Track not present in AccurateRip database.
Statistics
Read error : 0
Jitter error (maybe fixed) : 0
Retry sector count : 0
Damaged sector count : 0

Track 07
Filename : /Volumes/NAS/Temporary/07 - Back On It.flac
Pre-gap length : 00:00:32

Track gain : -7.01 dB
Peak : 1.000000
CRC32 hash (test run) : 67503833
CRC32 hash : 67503833
CRC32 hash (skip zero) : D76A6C79
AccurateRip v1 signature : E5555C81
AccurateRip v2 signature : 43D7B5B5
->Track not present in AccurateRip database.
Statistics
Read error : 0
Jitter error (maybe fixed) : 0
Retry sector count : 0
Damaged sector count : 0

Track 08
Filename : /Volumes/NAS/Temporary/08 - I Wish You Were Beer.flac
Pre-gap length : 00:00:61

Track gain : -8.71 dB
Peak : 0.999969
CRC32 hash (test run) : 5ACFFA18
CRC32 hash : 5ACFFA18
CRC32 hash (skip zero) : 6F33DE68
AccurateRip v1 signature : BEEDBA1B
AccurateRip v2 signature : 76CD4F8A
->Track not present in AccurateRip database.
Statistics
Read error : 0
Jitter error (maybe fixed) : 0
Retry sector count : 0
Damaged sector count : 0

Track 09
Filename : /Volumes/NAS/Temporary/09 - State Lines.flac
Pre-gap length : 00:00:40

Track gain : -9.63 dB
Peak : 0.997589
CRC32 hash (test run) : 2B0F61D4
CRC32 hash : 2B0F61D4
CRC32 hash (skip zero) : B4A6EAE3
AccurateRip v1 signature : B2E9D740
AccurateRip v2 signature : 32DDA5E8
->Track not present in AccurateRip database.
Statistics
Read error : 0
Jitter error (maybe fixed) : 0
Retry sector count : 0
Damaged sector count : 0

Track 10
Filename : /Volumes/NAS/Temporary/10 - Party Song.flac
Pre-gap length : 00:00:26

Track gain : -8.71 dB
Peak : 0.938934
CRC32 hash (test run) : A3254267
CRC32 hash : A3254267
CRC32 hash (skip zero) : 511FEEBD
AccurateRip v1 signature : 26512ABA
AccurateRip v2 signature : 73481348
->Track not present in AccurateRip database.
Statistics
Read error : 0
Jitter error (maybe fixed) : 0
Retry sector count : 0
Damaged sector count : 0

Track 11
Filename : /Volumes/NAS/Temporary/11 - New Girl.flac
Pre-gap length : 00:01:29

Track gain : -7.52 dB
Peak : 1.000000
CRC32 hash (test run) : A15EA5F6
CRC32 hash : A15EA5F6
CRC32 hash (skip zero) : A016C5EE
AccurateRip v1 signature : AAC20505
AccurateRip v2 signature : 18D20EC7
->Track not present in AccurateRip database.
Statistics
Read error : 0
Jitter error (maybe fixed) : 0
Retry sector count : 0
Damaged sector count : 0

Track 12
Filename : /Volumes/NAS/Temporary/12 - Why Not Tonight.flac
Pre-gap length : 00:00:49

Track gain : -9.19 dB
Peak : 1.000000
CRC32 hash (test run) : 2F8EC68C
CRC32 hash : 2F8EC68C
CRC32 hash (skip zero) : 2D45D56E
AccurateRip v1 signature : 5424DA05
AccurateRip v2 signature : 775BC855
->Track not present in AccurateRip database.
Statistics
Read error : 0
Jitter error (maybe fixed) : 0
Retry sector count : 0
Damaged sector count : 0

Track 13
Filename : /Volumes/NAS/Temporary/13 - Sun Don't Go Down On That.flac
Pre-gap length : 00:00:74

Track gain : -7.31 dB
Peak : 0.962524
CRC32 hash (test run) : 005E3E32
CRC32 hash : 005E3E32
CRC32 hash (skip zero) : 6E92750B
AccurateRip v1 signature : A7E92786
AccurateRip v2 signature : 8B18D59F
->Track not present in AccurateRip database.
Statistics
Read error : 0
Jitter error (maybe fixed) : 0
Retry sector count : 0
Damaged sector count : 0

No errors occurred

End of status report

––-BEGIN XLD SIGNATURE––-
L3KnG60EPXocStiZKQn7H.hWlSEH5FsqdhpW.Fc4qePhzvmaTCXqHs2J_LlvjkaLXEyeajIW01zurk7qYsPnvhTd4Gi2dNT.Cf.vN5u
––-END XLD SIGNATURE––-


All thanks go to the original releaser