VA - This Is Acid Jazz ...After Hours (1994)

VA - This Is Acid Jazz ...After Hours (1994)

VA - This Is Acid Jazz …After Hours (1994)
EAC | FLAC | Tracks (Cue&Log) ~ 383 Mb | Mp3 (CBR320) ~ 162 Mb | Scans included | 01:06:48
Acid Jazz, Future Jazz, Soul Jazz, Downtempo, Trip-Hop | Label: Instinct | # EX-298-2

"After Hours" has become a widespread calling card for the area between midnight and twilight, when all the city falls asleep except for a collective of nocturnal beings. A whole new range of attitudes - diverse styles, open perception. After Hours is when the machine turns off -and when the mind turns on.

In musical terms, it is the region outside categorization, the music that slips beyond the average stream of beats. It's not based on any beat pattern. After Hours is not ambient; nor is it acid-jazz, it's the area that exists in the gray area between them. Too quirky to hold any cliches too tightly; too loose for any grand agendas. After Hours eases the mind, softens the palette and opens the door to a new day.

In this case, After Hours is the music that remembers the previous night's impulses but winds down the motor to a slow pulse. Soulful and intimate, this is music concerned with information below the surface. These artists have gathered information from all over the world. From London, the ethnic dirge of "The Dawn" by Hedfunk (Coldcut and friends) and the ambient rustle of city life in Coco, Steele, & Lovebomb's "Harlem." Japan's l)J Krush stretches the imagination with the off-center and haunting "Edge Of Blue" and Austria's Kruder & Dorfmeister make dubbed-out jazz sound easy with "Definition."

New Yorkers, Brooklyn Funk Essentials, deliver .1 perfectly chilled jazz jam with their "Take The L Train (to 8th Avenue)" while German aces DisJam run from cool to smoking on their epic exploration "Denmark." O.M.U. checks in with their sinewy Brazilian groove slowed to .1 sexy, sultry whisper while Pal Joey's New Breed weaves a solo saxophone over a jazz guitar bed to create the haunting spoken word poem "New York, New York." 9 Lazy 9's " l ake 9" fuses deep, dark dub-laden beats with a beautiful and haunting trumpet solo. Might this be where Miles would be today?

Incorporating influences world-wide and combining them into a revolutionary sound-style - these artists appeal to a wide range of listeners, interested in a variety of music. After Hours is the soundtrack for city life. After the tumult of techno; after the bump of jeep beats - this is After Hours.

Todd C. Roberts, URB Magazine

Tracklist:

01. Omu - Desert In Your Eyes (4:30)
02. Marden Hill - Blacker (4:44)
03. Brooklyn Funk Essentials - Take The L Train (To 8Th Avenue) (4:05)
04. 9 Lazy 9 - Take 9 (7:06)
05. Coco, Steel And Lovebomb - Harlem (8:02)
06. Kruder And Dorfmeister - Definition (5:05)
07. F.R.I.S.K - Take The Sun Away (6:03)
08. Disjam - Denmark (13:14)
09. Dj Krush - Edge Of Blue (4:14)
10. Pal Joey's New Breed - New York, New York (4:49)
11. Hedfunk - The Dawn (4:55)


Exact Audio Copy V0.99 prebeta 5 from 4. May 2009

EAC extraction logfile from 3. September 2010, 21:54

Various / This Is Acid Jazz - After Hours

Used drive : PIONEER DVD-RW DVR-215D Adapter: 2 ID: 0

Read mode : Secure
Utilize accurate stream : Yes
Defeat audio cache : Yes
Make use of C2 pointers : No

Read offset correction : 48
Overread into Lead-In and Lead-Out : No
Fill up missing offset samples with silence : Yes
Delete leading and trailing silent blocks : No
Null samples used in CRC calculations : Yes
Used interface : Installed external ASPI interface
Gap handling : Appended to previous track

Used output format : User Defined Encoder
Selected bitrate : 768 kBit/s
Quality : High
Add ID3 tag : No
Command line compressor : C:\Program Files\Exact Audio Copy\FLAC\FLAC.EXE
Additional command line options : -8 -V -T "ARTIST=%a" -T "TITLE=%t" -T "ALBUM=%g" -T "DATE=%y" -T "TRACKNUMBER=%n" -T "GENRE=%m" -T "COMMENT=EAC FLAC -8" %s


TOC of the extracted CD

Track | Start | Length | Start sector | End sector
––––––––––––––––––––––––––––-
1 | 0:00.00 | 4:30.12 | 0 | 20261
2 | 4:30.12 | 4:44.00 | 20262 | 41561
3 | 9:14.12 | 4:05.30 | 41562 | 59966
4 | 13:19.42 | 7:06.18 | 59967 | 91934
5 | 20:25.60 | 8:01.65 | 91935 | 128074
6 | 28:27.50 | 5:05.25 | 128075 | 150974
7 | 33:33.00 | 6:02.70 | 150975 | 178194
8 | 39:35.70 | 13:14.07 | 178195 | 237751
9 | 52:50.02 | 4:13.55 | 237752 | 256781
10 | 57:03.57 | 4:48.70 | 256782 | 278451
11 | 61:52.52 | 4:55.23 | 278452 | 300599


Track 1

Filename D:\torrent\ripped by boccador\VA - This Is Acid Jazz - After Hours (1994)\01. Omu – Desert In Your Eyes.wav

Pre-gap length 0:00:02.00

Peak level 99.4 %
Track quality 100.0 %
Test CRC A6483EF6
Copy CRC A6483EF6
Accurately ripped (confidence 3) [F97D9900]
Copy OK

Track 2

Filename D:\torrent\ripped by boccador\VA - This Is Acid Jazz - After Hours (1994)\02. Marden Hill – Blacker.wav

Peak level 87.7 %
Track quality 100.0 %
Test CRC 515FF6EC
Copy CRC 515FF6EC
Accurately ripped (confidence 3) [77299839]
Copy OK

Track 3

Filename D:\torrent\ripped by boccador\VA - This Is Acid Jazz - After Hours (1994)\03. Brooklyn Funk Essentials – Take The L Train (To 8Th Avenue).wav

Pre-gap length 0:00:00.53

Peak level 98.4 %
Track quality 99.9 %
Test CRC B4DA4915
Copy CRC B4DA4915
Accurately ripped (confidence 3) [BF5E2D95]
Copy OK

Track 4

Filename D:\torrent\ripped by boccador\VA - This Is Acid Jazz - After Hours (1994)\04. 9 Lazy 9 – Take 9.wav

Peak level 98.4 %
Track quality 100.0 %
Test CRC CC32DB11
Copy CRC CC32DB11
Accurately ripped (confidence 3) [7751BD44]
Copy OK

Track 5

Filename D:\torrent\ripped by boccador\VA - This Is Acid Jazz - After Hours (1994)\05. Coco,Steel And Lovebomb – Harlem.wav

Pre-gap length 0:00:01.17

Peak level 98.4 %
Track quality 100.0 %
Test CRC 42742549
Copy CRC 42742549
Accurately ripped (confidence 3) [A4A5550C]
Copy OK

Track 6

Filename D:\torrent\ripped by boccador\VA - This Is Acid Jazz - After Hours (1994)\06. Kruder And Dorfmeister – Definition.wav

Pre-gap length 0:00:00.44

Peak level 98.4 %
Track quality 100.0 %
Test CRC 63BB7B0D
Copy CRC 63BB7B0D
Accurately ripped (confidence 3) [7898806E]
Copy OK

Track 7

Filename D:\torrent\ripped by boccador\VA - This Is Acid Jazz - After Hours (1994)\07. F.R.I.S.K – Take The Sun Away.wav

Pre-gap length 0:00:01.00

Peak level 98.4 %
Track quality 99.9 %
Test CRC C1F81B59
Copy CRC C1F81B59
Accurately ripped (confidence 3) [33D9AB78]
Copy OK

Track 8

Filename D:\torrent\ripped by boccador\VA - This Is Acid Jazz - After Hours (1994)\08. Disjam – Denmark.wav

Peak level 69.6 %
Track quality 100.0 %
Test CRC 25C3F33A
Copy CRC 25C3F33A
Accurately ripped (confidence 3) [73306306]
Copy OK

Track 9

Filename D:\torrent\ripped by boccador\VA - This Is Acid Jazz - After Hours (1994)\09. Dj Krush – Edge Of Blue.wav

Pre-gap length 0:00:01.66

Peak level 78.1 %
Track quality 100.0 %
Test CRC 238A0A9C
Copy CRC 238A0A9C
Accurately ripped (confidence 3) [26776983]
Copy OK

Track 10

Filename D:\torrent\ripped by boccador\VA - This Is Acid Jazz - After Hours (1994)\10. Pal Joey's New Breed – New York, New York.wav

Pre-gap length 0:00:02.42

Peak level 46.9 %
Track quality 100.0 %
Test CRC 61C82427
Copy CRC 61C82427
Accurately ripped (confidence 3) [CFD2DB30]
Copy OK

Track 11

Filename D:\torrent\ripped by boccador\VA - This Is Acid Jazz - After Hours (1994)\11. Hedfunk – The Dawn.wav

Pre-gap length 0:00:01.16

Peak level 78.1 %
Track quality 100.0 %
Test CRC 83118E21
Copy CRC 83118E21
Accurately ripped (confidence 3) [E9D7B4BE]
Copy OK


All tracks accurately ripped

No errors occurred

End of status report

foobar2000 1.2 / Dynamic Range Meter 1.1.1
log date: 2017-12-21 01:10:01

––––––––––––––––––––––––––––––––––––––––
Analyzed: 9 Lazy 9 / This Is Acid Jazz - After Hours (1)
Brooklyn Funk Essentials / This Is Acid Jazz - After Hours (2)
Coco, Steel And Lovebomb / This Is Acid Jazz - After Hours (3)
Disjam / This Is Acid Jazz - After Hours (4)
Dj Krush / This Is Acid Jazz - After Hours (5)
F.R.I.S.K / This Is Acid Jazz - After Hours (6)
Hedfunk / This Is Acid Jazz - After Hours (7)
Kruder And Dorfmeister / This Is Acid Jazz - After Hours (8)
Marden Hill / This Is Acid Jazz - After Hours (9)
Omu / This Is Acid Jazz - After Hours (10)
Pal Joey's New Breed / This Is Acid Jazz - After Hours (11)
––––––––––––––––––––––––––––––––––––––––

DR Peak RMS Duration Track
––––––––––––––––––––––––––––––––––––––––
DR10 -0.14 dB -10.94 dB 7:06 04-Take 9
DR10 -0.14 dB -12.00 dB 4:05 03-Take The L Train (To 8Th Avenue)
DR16 -0.14 dB -21.33 dB 8:02 05-Harlem
DR8 -3.14 dB -13.22 dB 13:14 08-Denmark
DR10 -2.14 dB -13.21 dB 4:14 09-Edge Of Blue
DR13 -0.14 dB -15.27 dB 6:03 07-Take The Sun Away
DR8 -2.14 dB -13.98 dB 4:55 11-The Dawn
DR13 -0.14 dB -15.49 dB 5:05 06-Definition
DR11 -1.14 dB -14.41 dB 4:44 02-Blacker
DR13 -0.05 dB -15.49 dB 4:30 01-Desert In Your Eyes
DR16 -6.57 dB -26.32 dB 4:49 10-New York, New York
––––––––––––––––––––––––––––––––––––––––

Number of tracks: 11
Official DR value: DR12

Samplerate: 44100 Hz
Channels: 2
Bits per sample: 16
Bitrate: 523 kbps
Codec: FLAC
================================================================================

VA - This Is Acid Jazz ...After Hours (1994)

VA - This Is Acid Jazz ...After Hours (1994)

All thanks to original releaser

More interesting music in My Blog