Jan A.P. Kaczmarek - Finding Neverland: Original Motion Picture Soundtrack (2004)

Jan A.P. Kaczmarek - Finding Neverland: Original Motion Picture Soundtrack (2004)

Jan A.P. Kaczmarek - Finding Neverland: Original Motion Picture Soundtrack (2004)
XLD | FLAC (Tracks) + cue.+log ~ 257 Mb | Mp3, CBR320 kbps ~ 139 Mb | Scans included
Soundtrack, Score, Modern Classical | Label: Decca | # 986 3757 | Time: 00:58:33

The original motion picture soundtrack to the 2004 film starring Johnny Depp, Kate Winslet, Dustin Hoffman, & Julie Christie, with original music composed by Jan A. P. Kaczmarek. The album won the Academy Award for Best Original Score. It was also nominated for the BAFTA Award for Best Film Music and the Golden Globe Award for Best Original Score.

As did the Lewis Carroll/Alice in Wonderland-rooted Dreamchild before it, Finding Neverlandexplores the all-too-human roots of an English children' s literature classic, in this case author James Mathew Barrie's (Johnny Depp) enduring fable, Peter Pan. Polish stage composer cum film scorer Jan A. P. Kaczmarek takes the film's fantasy-leavened, yet ultimately bittersweet tale of Barrie, his losing battle with adulthood and the magic world of prose it inspired and invests it with an exuberant score that positively pulses with youthful abandon. Dominated by joyous writing for strings, winds and children's chorus and punctuated by the effervescent solo piano flourishes of Leszek Mozdzer (and a few other inviting ethnic conceits), the composer's music not only playfully vamps the tale's Edwardian era, but does it with an ear towards optimistic, youthful energy that's irresistible. Mozdzer also contributes several masterful solo piano interpretations of Kaczmarek's themes that, while not strictly a part of the film's score, contribute greatly to making this album a compelling whole unto itself.

Review by Jerry McCulley

Despite the film title's Peter Pan and Pixar-like associations, Finding Neverland is a serious (albeit fictional) look at James Matthew Barrie's process of creating the Peter Pan tale and how it affected his real life relationships. Set in London just after 1900, the 2004 film follows the Scottish author's inspiration for Peter Pan, from the first ideas about the fantasy to the climactic premiere of the original play at the Duke of York's Theatre. Somewhat of a heartbreak story, Finding Neverland has a grown-up perspective about its material (and even quickly addresses the controversy about alleged perversion involving Barrie's love of children) despite a main character whose fantasy so entrances him that the real life aspect holds its own magical, fairy-tale kind of cloudiness. Allowing time for star Johnny Depp to master a Scottish accent and assuring that the film wouldn't overlap in the theatres with 2003's live-action Peter Pan entry, Miramax delayed this film by an entire year, a wise move that aided in the production's mass popularity during the 2004 awards season. Delays in release dates often benefit the composer of the film just as much as any other post-production element, and in this case, the final musical product was realized by stage and film veteran Jan A.P. Kaczmarek. The assignment became the biggest international success of Kaczmarek's career (despite his work on a variety of Hollywood productions in the 2000's), earning him an Academy Award statue and nominations for a Golden Globe and BAFTA Award. Featuring a story saturated with emotional weight and sentimental fantasy, Finding Neverland would have seemed like a perfect fit for a composer like Rachel Portman or Stephen Warbeck at the time (both prior Oscar winners for fluffy historical drama and romance scores), although Kaczmarek managed to produce a score that very successfully merges the light-hearted styles of those two composers.

The wide range of emotional appeal in Finding Neverland, along with the inherent fantasy value of the Peter Pan legacy itself, required an orchestral approach in the score from the outset, and Kaczmarek combined an airy ensemble with a children's choir and his trademark piano to offer the necessary depth to Barrie's imagination. For casual film music fans, the body of Kaczmarek's work of the era was likely represented by his horror and suspense material for Lost Souls and Unfaithful, two scores that definitely don't bring out warm and fuzzy feelings. But Kaczmarek's prior experience in stage writing suited him well, and his score for Finding Neverland is innocently convincing and classically effective without sounding trite in its majority. While traversing the varied journey of Barrie's creation process, Kaczmarek maintains a score that is consistently rooted in the author's imagined world of Neverland. Not a single moment of fright or worry is to be heard in the score, perhaps due to the fact that Barrie always had one foot in Neverland while the other remained in reality, but that constant child-like personality and soft enthusiasm provides for a very even and upbeat listening experience when the score is separated from the film. A lightly dancing rhythm often propels Finding Neverland in ways fans of Portman and Warbeck will recognize immediately, those rhythms often pronounced very delicately but deliberately as the work progresses. The children's choir often bounces along innocuously with the rhythm at its most playful moments. Free-flowing, repetitive string and woodwind themes offer a steady stream of classically-structured inspiration in the major key as Barrie writes and lives his story, the somewhat sappy identity for Neverland reminiscent of Ennio Morricone's The Mission and James Horner's Glory. There is a slight Eastern European accent to the underlying rhythms and their instrumentation at times (especially in "Dancing With the Bear" and "Another Bear"), perhaps due to Kaczmarek's nationality, but these inclinations do not disrupt the score to any great degree.

When Kaczmarek brought fellow Polish pianist Leszek Mozdzer on board for the production, the role of the piano expanded beyond its originally supporting contributions and gave the instrument an enhanced role due to several inspired solo adaptations of Kaczmarek's themes, the "Piano Variation in Blue" a lovely take on the Neverland theme. For listeners who enjoy these lightly prancing scores when they mature into fully orchestral statements of bright melody, Kaczmarek does indulge you at times, but not to the degree you'd imagine given the serious angle of the story. Fuller symphonic performances appear in the "Peter Pan Overture," the two play-related cues near the end of the film, and Kaczmarek's own overture. The only truly Neverland-inspired adventure cue comes in the form of "The Pirates," a moment sadly underpowered technically but basically sufficient in serving its swashbuckling purpose. The general lack of interesting layers to this score is its only major weakness, with the choral moments sounding much like a Horner's children's adventure scores (and Casper in particular) on a serious diet. Along with the added piano solos on the album (an extra treat resulting from impromptu recordings with Mozdzer after the score's actual recordings had been completed), however, Kaczmarek's score performs as well as any Portman or Warbeck fan could desire. The delightfully pretty rhythmic humor and melodic summaries of the nearly identical "Where is Mr. Barrie?" and "Forgotten Overture" are attractively effortless accompaniment to the deeper moments of melodic expression (led by "The Play and the Flight"). The score never fleshes itself out as one might wish for on the album presentation, nor does it explore the realm of truly magical orchestral melodrama, but the consistently pleasant attitude of its sways and rhythms makes for a soothing and enjoyable background listening experience. The recording is competently balanced, each solo element well enunciated despite a satisfyingly wet mix; the woodwinds in the vintage Horner-like theme during "The Park" particularly well highlighted. If an optimistic mood is what you seek, it's hard to go wrong with this saccharine hour of ear candy on album.

Editorial review by FilmTracks.com

Jan A.P. Kaczmarek - Finding Neverland: Original Motion Picture Soundtrack (2004)


~ Jan A.P. Kaczmarek Website
~ Jan A.P. Kaczmarek at Wiki

~ Film at IMDB
~ Film at Wiki

Tracklist:

01. Where Is Mr. Barrie (03:32)
02. The Park (01:07)
03. Dancing With The Bear (02:03)
04. The Kite (01:37)
05. The Chess (01:07)
06. Neverland - Piano Variation In Blue (04:29)
07. The Spoon On The Nose (01:28)
08. The Pirates (02:11)
09. The Marriage (02:40)
10. Children Arrive (03:15)
11. Drive To The Cottage (01:04)
12. The Peter Pan Overture (01:17)
13. Peter (02:20)
14. The Park On Piano (05:23)
15. The Stairs (02:14)
16. Impossible Opening (03:26)
17. The Rehearsal (01:20)
18. Neverland - Minor Piano Variation (03:39)
19. The Play And The Flight (01:21)
20. This Is Neverland (04:01)
21. Why Does She Have To Die (02:05)
22. Another Bear (03:11)
23. Forgotten Overture (03:31)


X Lossless Decoder version 20101010 (123.3)

XLD extraction logfile from 2010-10-16 18:10:47 -0600

Jan A.P. Kaczmarek / Finding Neverland

Used drive : MATSHITA DVD-R UJ-85J (revision FM0S)

Use cdparanoia mode : YES (CDParanoia III 10.2 engine)
Disable audio cache : OK for the drive with cache less than 2750KB
Make use of C2 pointers : NO
Read offset correction : 102
Max retry count : 100
Gap status : Analyzed, Appended (except HTOA)

TOC of the extracted CD
Track | Start | Length | Start sector | End sector
––––––––––––––––––––––––––––-
1 | 00:00:00 | 03:32:55 | 0 | 15954
2 | 03:32:55 | 01:07:70 | 15955 | 21049
3 | 04:40:50 | 02:03:50 | 21050 | 30324
4 | 06:44:25 | 01:37:62 | 30325 | 37661
5 | 08:22:12 | 01:07:25 | 37662 | 42711
6 | 09:29:37 | 04:29:00 | 42712 | 62886
7 | 13:58:37 | 01:28:70 | 62887 | 69556
8 | 15:27:32 | 02:11:40 | 69557 | 79421
9 | 17:38:72 | 02:40:50 | 79422 | 91471
10 | 20:19:47 | 03:15:00 | 91472 | 106096
11 | 23:34:47 | 01:04:18 | 106097 | 110914
12 | 24:38:65 | 01:17:52 | 110915 | 116741
13 | 25:56:42 | 02:20:70 | 116742 | 127311
14 | 28:17:37 | 05:23:48 | 127312 | 151584
15 | 33:41:10 | 02:14:40 | 151585 | 161674
16 | 35:55:50 | 03:26:35 | 161675 | 177159
17 | 39:22:10 | 01:20:45 | 177160 | 183204
18 | 40:42:55 | 03:39:10 | 183205 | 199639
19 | 44:21:65 | 01:21:67 | 199640 | 205781
20 | 45:43:57 | 04:01:70 | 205782 | 223926
21 | 49:45:52 | 02:05:13 | 223927 | 233314
22 | 51:50:65 | 03:11:25 | 233315 | 247664
23 | 55:02:15 | 03:31:10 | 247665 | 263499


All Tracks
Album gain : -2.29 dB
Peak : 0.975342

Track 01
Filename : /XLD/Jan A.P. Kaczmarek - Finding Neverland (2004) [FLAC]/01 Where Is Mr. Barrie.flac
Pre-gap length : 00:02:00

Track gain : -2.85 dB
Peak : 0.963165
CRC32 hash (test run) : 455857D0
CRC32 hash : 455857D0
CRC32 hash (skip zero) : C4053EC4
AccurateRip signature : E2CB7641
->Accurately ripped! (confidence 34)
Statistics
Read error : 0
Skipped (treated as error) : 0
Edge jitter error (maybe fixed) : 0
Atom jitter error (maybe fixed) : 0
Drift error (maybe fixed) : 0
Dropped bytes error (maybe fixed) : 0
Duplicated bytes error (maybe fixed) : 0
Inconsistency in error sectors : 0

Track 02
Filename : /XLD/Jan A.P. Kaczmarek - Finding Neverland (2004) [FLAC]/02 The Park.flac

Track gain : -1.05 dB
Peak : 0.721283
CRC32 hash (test run) : AEF5C174
CRC32 hash : AEF5C174
CRC32 hash (skip zero) : A71E5C0F
AccurateRip signature : A151E21F
->Accurately ripped! (confidence 33)
Statistics
Read error : 0
Skipped (treated as error) : 0
Edge jitter error (maybe fixed) : 0
Atom jitter error (maybe fixed) : 0
Drift error (maybe fixed) : 0
Dropped bytes error (maybe fixed) : 0
Duplicated bytes error (maybe fixed) : 0
Inconsistency in error sectors : 0

Track 03
Filename : /XLD/Jan A.P. Kaczmarek - Finding Neverland (2004) [FLAC]/03 Dancing With The Bear.flac

Track gain : -0.50 dB
Peak : 0.806580
CRC32 hash (test run) : 22C7FEA4
CRC32 hash : 22C7FEA4
CRC32 hash (skip zero) : 00EB0E44
AccurateRip signature : C30A1F1B
->Accurately ripped! (confidence 34)
Statistics
Read error : 0
Skipped (treated as error) : 0
Edge jitter error (maybe fixed) : 0
Atom jitter error (maybe fixed) : 0
Drift error (maybe fixed) : 0
Dropped bytes error (maybe fixed) : 0
Duplicated bytes error (maybe fixed) : 0
Inconsistency in error sectors : 0

Track 04
Filename : /XLD/Jan A.P. Kaczmarek - Finding Neverland (2004) [FLAC]/04 The Kite.flac

Track gain : -3.25 dB
Peak : 0.873016
CRC32 hash (test run) : 2C3DF714
CRC32 hash : 2C3DF714
CRC32 hash (skip zero) : 3264AD2B
AccurateRip signature : 330986BF
->Accurately ripped! (confidence 33)
Statistics
Read error : 0
Skipped (treated as error) : 0
Edge jitter error (maybe fixed) : 0
Atom jitter error (maybe fixed) : 0
Drift error (maybe fixed) : 0
Dropped bytes error (maybe fixed) : 0
Duplicated bytes error (maybe fixed) : 0
Inconsistency in error sectors : 0

Track 05
Filename : /XLD/Jan A.P. Kaczmarek - Finding Neverland (2004) [FLAC]/05 The Chess.flac

Track gain : -4.19 dB
Peak : 0.925262
CRC32 hash (test run) : BBD601A6
CRC32 hash : BBD601A6
CRC32 hash (skip zero) : 2674478F
AccurateRip signature : 3F735F38
->Accurately ripped! (confidence 33)
Statistics
Read error : 0
Skipped (treated as error) : 0
Edge jitter error (maybe fixed) : 0
Atom jitter error (maybe fixed) : 0
Drift error (maybe fixed) : 0
Dropped bytes error (maybe fixed) : 0
Duplicated bytes error (maybe fixed) : 0
Inconsistency in error sectors : 0

Track 06
Filename : /XLD/Jan A.P. Kaczmarek - Finding Neverland (2004) [FLAC]/06 Neverland - Piano Variation In Blue.flac

Track gain : 0.50 dB
Peak : 0.895050
CRC32 hash (test run) : B8274AD3
CRC32 hash : B8274AD3
CRC32 hash (skip zero) : 3A6B649B
AccurateRip signature : C39E98CD
->Accurately ripped! (confidence 32)
Statistics
Read error : 0
Skipped (treated as error) : 0
Edge jitter error (maybe fixed) : 0
Atom jitter error (maybe fixed) : 0
Drift error (maybe fixed) : 0
Dropped bytes error (maybe fixed) : 0
Duplicated bytes error (maybe fixed) : 0
Inconsistency in error sectors : 0

Track 07
Filename : /XLD/Jan A.P. Kaczmarek - Finding Neverland (2004) [FLAC]/07 The Spoon On The Nose.flac

Track gain : -0.13 dB
Peak : 0.768616
CRC32 hash (test run) : D6DBA77F
CRC32 hash : D6DBA77F
CRC32 hash (skip zero) : 53753545
AccurateRip signature : B402F942
->Accurately ripped! (confidence 32)
Statistics
Read error : 0
Skipped (treated as error) : 0
Edge jitter error (maybe fixed) : 0
Atom jitter error (maybe fixed) : 0
Drift error (maybe fixed) : 0
Dropped bytes error (maybe fixed) : 0
Duplicated bytes error (maybe fixed) : 0
Inconsistency in error sectors : 0

Track 08
Filename : /XLD/Jan A.P. Kaczmarek - Finding Neverland (2004) [FLAC]/08 The Pirates.flac

Track gain : -3.65 dB
Peak : 0.944580
CRC32 hash (test run) : 290A743D
CRC32 hash : 290A743D
CRC32 hash (skip zero) : 618A498B
AccurateRip signature : 6F13FBAF
->Accurately ripped! (confidence 32)
Statistics
Read error : 0
Skipped (treated as error) : 0
Edge jitter error (maybe fixed) : 0
Atom jitter error (maybe fixed) : 0
Drift error (maybe fixed) : 0
Dropped bytes error (maybe fixed) : 0
Duplicated bytes error (maybe fixed) : 0
Inconsistency in error sectors : 0

Track 09
Filename : /XLD/Jan A.P. Kaczmarek - Finding Neverland (2004) [FLAC]/09 The Marriage.flac

Track gain : 1.20 dB
Peak : 0.648224
CRC32 hash (test run) : D68E3467
CRC32 hash : D68E3467
CRC32 hash (skip zero) : EE89AB57
AccurateRip signature : 351FDD1D
->Accurately ripped! (confidence 32)
Statistics
Read error : 0
Skipped (treated as error) : 0
Edge jitter error (maybe fixed) : 0
Atom jitter error (maybe fixed) : 0
Drift error (maybe fixed) : 0
Dropped bytes error (maybe fixed) : 0
Duplicated bytes error (maybe fixed) : 0
Inconsistency in error sectors : 0

Track 10
Filename : /XLD/Jan A.P. Kaczmarek - Finding Neverland (2004) [FLAC]/10 Children Arrive.flac

Track gain : 3.80 dB
Peak : 0.690155
CRC32 hash (test run) : 0AE806B7
CRC32 hash : 0AE806B7
CRC32 hash (skip zero) : 814BD4E6
AccurateRip signature : 7CF76B1E
->Accurately ripped! (confidence 33)
Statistics
Read error : 0
Skipped (treated as error) : 0
Edge jitter error (maybe fixed) : 0
Atom jitter error (maybe fixed) : 0
Drift error (maybe fixed) : 0
Dropped bytes error (maybe fixed) : 0
Duplicated bytes error (maybe fixed) : 0
Inconsistency in error sectors : 0

Track 11
Filename : /XLD/Jan A.P. Kaczmarek - Finding Neverland (2004) [FLAC]/11 Drive To The Cottage.flac
Pre-gap length : 00:00:25

Track gain : 1.91 dB
Peak : 0.560211
CRC32 hash (test run) : 29C45D85
CRC32 hash : 29C45D85
CRC32 hash (skip zero) : 5C210D38
AccurateRip signature : 444BFBBC
->Accurately ripped! (confidence 33)
Statistics
Read error : 0
Skipped (treated as error) : 0
Edge jitter error (maybe fixed) : 0
Atom jitter error (maybe fixed) : 0
Drift error (maybe fixed) : 0
Dropped bytes error (maybe fixed) : 0
Duplicated bytes error (maybe fixed) : 0
Inconsistency in error sectors : 0

Track 12
Filename : /XLD/Jan A.P. Kaczmarek - Finding Neverland (2004) [FLAC]/12 The Peter Pan Overture.flac

Track gain : -3.58 dB
Peak : 0.952911
CRC32 hash (test run) : D5A0D1EB
CRC32 hash : D5A0D1EB
CRC32 hash (skip zero) : AC34DA96
AccurateRip signature : 33645269
->Accurately ripped! (confidence 32)
Statistics
Read error : 0
Skipped (treated as error) : 0
Edge jitter error (maybe fixed) : 0
Atom jitter error (maybe fixed) : 0
Drift error (maybe fixed) : 0
Dropped bytes error (maybe fixed) : 0
Duplicated bytes error (maybe fixed) : 0
Inconsistency in error sectors : 0

Track 13
Filename : /XLD/Jan A.P. Kaczmarek - Finding Neverland (2004) [FLAC]/13 Peter.flac

Track gain : -3.02 dB
Peak : 0.795593
CRC32 hash (test run) : CA8C0360
CRC32 hash : CA8C0360
CRC32 hash (skip zero) : E30D24D3
AccurateRip signature : 4932858C
->Accurately ripped! (confidence 33)
Statistics
Read error : 0
Skipped (treated as error) : 0
Edge jitter error (maybe fixed) : 0
Atom jitter error (maybe fixed) : 0
Drift error (maybe fixed) : 0
Dropped bytes error (maybe fixed) : 0
Duplicated bytes error (maybe fixed) : 0
Inconsistency in error sectors : 0

Track 14
Filename : /XLD/Jan A.P. Kaczmarek - Finding Neverland (2004) [FLAC]/14 The Park On Piano.flac

Track gain : -1.27 dB
Peak : 0.953217
CRC32 hash (test run) : 59DB025B
CRC32 hash : 59DB025B
CRC32 hash (skip zero) : 1F22792D
AccurateRip signature : 232E62C8
->Accurately ripped! (confidence 32)
Statistics
Read error : 0
Skipped (treated as error) : 0
Edge jitter error (maybe fixed) : 0
Atom jitter error (maybe fixed) : 0
Drift error (maybe fixed) : 0
Dropped bytes error (maybe fixed) : 0
Duplicated bytes error (maybe fixed) : 0
Inconsistency in error sectors : 0

Track 15
Filename : /XLD/Jan A.P. Kaczmarek - Finding Neverland (2004) [FLAC]/15 The Stairs.flac

Track gain : -2.16 dB
Peak : 0.849060
CRC32 hash (test run) : ABB7C1A1
CRC32 hash : ABB7C1A1
CRC32 hash (skip zero) : E1F3DE23
AccurateRip signature : 458CEC03
->Accurately ripped! (confidence 33)
Statistics
Read error : 0
Skipped (treated as error) : 0
Edge jitter error (maybe fixed) : 0
Atom jitter error (maybe fixed) : 0
Drift error (maybe fixed) : 0
Dropped bytes error (maybe fixed) : 0
Duplicated bytes error (maybe fixed) : 0
Inconsistency in error sectors : 0

Track 16
Filename : /XLD/Jan A.P. Kaczmarek - Finding Neverland (2004) [FLAC]/16 Impossible Opening.flac

Track gain : -2.48 dB
Peak : 0.958527
CRC32 hash (test run) : F5590527
CRC32 hash : F5590527
CRC32 hash (skip zero) : A9A7151A
AccurateRip signature : B8FA5048
->Accurately ripped! (confidence 33)
Statistics
Read error : 0
Skipped (treated as error) : 0
Edge jitter error (maybe fixed) : 0
Atom jitter error (maybe fixed) : 0
Drift error (maybe fixed) : 0
Dropped bytes error (maybe fixed) : 0
Duplicated bytes error (maybe fixed) : 0
Inconsistency in error sectors : 0

Track 17
Filename : /XLD/Jan A.P. Kaczmarek - Finding Neverland (2004) [FLAC]/17 The Rehearsal.flac

Track gain : -0.46 dB
Peak : 0.696564
CRC32 hash (test run) : 821BEE3C
CRC32 hash : 821BEE3C
CRC32 hash (skip zero) : 027E5A62
AccurateRip signature : 318943C8
->Accurately ripped! (confidence 33)
Statistics
Read error : 0
Skipped (treated as error) : 0
Edge jitter error (maybe fixed) : 0
Atom jitter error (maybe fixed) : 0
Drift error (maybe fixed) : 0
Dropped bytes error (maybe fixed) : 0
Duplicated bytes error (maybe fixed) : 0
Inconsistency in error sectors : 0

Track 18
Filename : /XLD/Jan A.P. Kaczmarek - Finding Neverland (2004) [FLAC]/18 Neverland - Minor Piano Variation.flac

Track gain : 3.32 dB
Peak : 0.682617
CRC32 hash (test run) : 583A2D08
CRC32 hash : 583A2D08
CRC32 hash (skip zero) : 163AA18F
AccurateRip signature : 3E1112FF
->Accurately ripped! (confidence 33)
Statistics
Read error : 0
Skipped (treated as error) : 0
Edge jitter error (maybe fixed) : 0
Atom jitter error (maybe fixed) : 0
Drift error (maybe fixed) : 0
Dropped bytes error (maybe fixed) : 0
Duplicated bytes error (maybe fixed) : 0
Inconsistency in error sectors : 0

Track 19
Filename : /XLD/Jan A.P. Kaczmarek - Finding Neverland (2004) [FLAC]/19 The Play And The Flight.flac

Track gain : -4.51 dB
Peak : 0.975006
CRC32 hash (test run) : 48222659
CRC32 hash : 48222659
CRC32 hash (skip zero) : 847B9C64
AccurateRip signature : 16B1DB41
->Accurately ripped! (confidence 33)
Statistics
Read error : 0
Skipped (treated as error) : 0
Edge jitter error (maybe fixed) : 0
Atom jitter error (maybe fixed) : 0
Drift error (maybe fixed) : 0
Dropped bytes error (maybe fixed) : 0
Duplicated bytes error (maybe fixed) : 0
Inconsistency in error sectors : 0

Track 20
Filename : /XLD/Jan A.P. Kaczmarek - Finding Neverland (2004) [FLAC]/20 This Is Neverland.flac

Track gain : -3.87 dB
Peak : 0.957977
CRC32 hash (test run) : 6A0C412A
CRC32 hash : 6A0C412A
CRC32 hash (skip zero) : F8DFF7C1
AccurateRip signature : 9CB3041D
->Accurately ripped! (confidence 33)
Statistics
Read error : 0
Skipped (treated as error) : 0
Edge jitter error (maybe fixed) : 0
Atom jitter error (maybe fixed) : 0
Drift error (maybe fixed) : 0
Dropped bytes error (maybe fixed) : 0
Duplicated bytes error (maybe fixed) : 0
Inconsistency in error sectors : 0

Track 21
Filename : /XLD/Jan A.P. Kaczmarek - Finding Neverland (2004) [FLAC]/21 Why Does She Have To Die.flac

Track gain : -4.27 dB
Peak : 0.952454
CRC32 hash (test run) : FF93535B
CRC32 hash : FF93535B
CRC32 hash (skip zero) : 8C5168E8
AccurateRip signature : C3354E22
->Accurately ripped! (confidence 33)
Statistics
Read error : 0
Skipped (treated as error) : 0
Edge jitter error (maybe fixed) : 0
Atom jitter error (maybe fixed) : 0
Drift error (maybe fixed) : 0
Dropped bytes error (maybe fixed) : 0
Duplicated bytes error (maybe fixed) : 0
Inconsistency in error sectors : 0

Track 22
Filename : /XLD/Jan A.P. Kaczmarek - Finding Neverland (2004) [FLAC]/22 Another Bear.flac

Track gain : -1.35 dB
Peak : 0.809418
CRC32 hash (test run) : BFC83BE8
CRC32 hash : BFC83BE8
CRC32 hash (skip zero) : 59B795E4
AccurateRip signature : 1693A90C
->Accurately ripped! (confidence 34)
Statistics
Read error : 0
Skipped (treated as error) : 0
Edge jitter error (maybe fixed) : 0
Atom jitter error (maybe fixed) : 0
Drift error (maybe fixed) : 0
Dropped bytes error (maybe fixed) : 0
Duplicated bytes error (maybe fixed) : 0
Inconsistency in error sectors : 0

Track 23
Filename : /XLD/Jan A.P. Kaczmarek - Finding Neverland (2004) [FLAC]/23 Forgotten Overture.flac

Track gain : -3.28 dB
Peak : 0.975342
CRC32 hash (test run) : 81B24BB7
CRC32 hash : 81B24BB7
CRC32 hash (skip zero) : 89471AB8
AccurateRip signature : AC45931A
->Accurately ripped! (confidence 34)
Statistics
Read error : 0
Skipped (treated as error) : 0
Edge jitter error (maybe fixed) : 0
Atom jitter error (maybe fixed) : 0
Drift error (maybe fixed) : 0
Dropped bytes error (maybe fixed) : 0
Duplicated bytes error (maybe fixed) : 0
Inconsistency in error sectors : 0

No errors occurred

End of status report

[CUETools log; Date: 25.12.2017 22:53:09; Version: 2.1.4]
[CTDB TOCID: T2j0wJGK5pp2P4t70Poux.K17D0-] found.
Track | CTDB Status
1 | (80/81) Accurately ripped
2 | (80/81) Accurately ripped
3 | (80/81) Accurately ripped
4 | (80/81) Accurately ripped
5 | (80/81) Accurately ripped
6 | (80/81) Accurately ripped
7 | (80/81) Accurately ripped
8 | (80/81) Accurately ripped
9 | (80/81) Accurately ripped
10 | (80/81) Accurately ripped
11 | (80/81) Accurately ripped
12 | (80/81) Accurately ripped
13 | (80/81) Accurately ripped
14 | (80/81) Accurately ripped
15 | (80/81) Accurately ripped
16 | (80/81) Accurately ripped
17 | (80/81) Accurately ripped
18 | (80/81) Accurately ripped
19 | (80/81) Accurately ripped
20 | (80/81) Accurately ripped
21 | (80/81) Accurately ripped
22 | (79/81) Accurately ripped
23 | (79/81) Accurately ripped
[AccurateRip ID: 002d28ca-02fb3d50-290db917] found.
Track [ CRC | V2 ] Status
01 [e2cb7641|b6244558] (40+43/83) Accurately ripped
02 [a151e21f|014b6db8] (39+43/82) Accurately ripped
03 [c30a1f1b|9334a209] (40+44/84) Accurately ripped
04 [330986bf|961f7efc] (39+43/82) Accurately ripped
05 [3f735f38|7185444c] (39+43/82) Accurately ripped
06 [c39e98cd|b3a98836] (38+44/82) Accurately ripped
07 [b402f942|2b5cd5ef] (38+44/82) Accurately ripped
08 [6f13fbaf|31be56bb] (38+43/81) Accurately ripped
09 [351fdd1d|0692dc06] (38+43/81) Accurately ripped
10 [7cf76b1e|9bdf6906] (39+43/82) Accurately ripped
11 [444bfbbc|79a8cd58] (39+43/82) Accurately ripped
12 [33645269|b152e189] (38+43/81) Accurately ripped
13 [4932858c|65ef0475] (39+43/82) Accurately ripped
14 [232e62c8|949aac7e] (38+44/82) Accurately ripped
15 [458cec03|63701b6d] (39+43/82) Accurately ripped
16 [b8fa5048|1504f97b] (39+42/81) Accurately ripped
17 [318943c8|3c13f185] (39+43/82) Accurately ripped
18 [3e1112ff|50e015c5] (39+44/83) Accurately ripped
19 [16b1db41|29845697] (39+43/82) Accurately ripped
20 [9cb3041d|ec4f4e71] (39+43/82) Accurately ripped
21 [c3354e22|be278f1c] (39+43/82) Accurately ripped
22 [1693a90c|5888ccd5] (40+43/83) Accurately ripped
23 [ac45931a|0062ba02] (40+43/83) Accurately ripped
Offsetted by -12:
01 [866ef91d] (00/83) No match (V2 was not tested)
02 [48180dc3] (00/82) No match (V2 was not tested)
03 [0892f78e] (00/84) No match (V2 was not tested)
04 [b0578910] (00/82) No match (V2 was not tested)
05 [760f30c6] (00/82) No match (V2 was not tested)
06 [f3787efa] (00/82) No match (V2 was not tested)
07 [f3542858] (00/82) No match (V2 was not tested)
08 [866cb304] (00/81) No match (V2 was not tested)
09 [722bd9ea] (00/81) No match (V2 was not tested)
10 [b638ada8] (00/82) No match (V2 was not tested)
11 [964b4a76] (00/82) No match (V2 was not tested)
12 [78881bfd] (00/81) No match (V2 was not tested)
13 [1134bfc2] (00/82) No match (V2 was not tested)
14 [e60bc469] (00/82) No match (V2 was not tested)
15 [aec4104a] (00/82) No match (V2 was not tested)
16 [bf1db59c] (00/81) No match (V2 was not tested)
17 [95f95b0e] (00/82) No match (V2 was not tested)
18 [bad8f398] (00/83) No match (V2 was not tested)
19 [b7adc409] (00/82) No match (V2 was not tested)
20 [ba27ddcd] (00/82) No match (V2 was not tested)
21 [5a27a497] (00/82) No match (V2 was not tested)
22 [8f1addb1] (00/83) No match (V2 was not tested)
23 [709d8810] (00/83) No match (V2 was not tested)

Track Peak [ CRC32 ] [W/O NULL]
– 97,5 [0B5E69A2] [C67081FD]
01 96,3 [455857D0] [C4053EC4]
02 72,1 [AEF5C174] [A71E5C0F]
03 80,6 [22C7FEA4] [00EB0E44]
04 87,3 [2C3DF714] [3264AD2B]
05 92,5 [BBD601A6] [2674478F]
06 89,5 [B8274AD3] [3A6B649B]
07 76,8 [D6DBA77F] [53753545]
08 94,4 [290A743D] [618A498B]
09 64,8 [D68E3467] [EE89AB57]
10 69,0 [0AE806B7] [814BD4E6]
11 56,0 [29C45D85] [5C210D38]
12 95,2 [D5A0D1EB] [AC34DA96]
13 79,5 [CA8C0360] [E30D24D3]
14 95,3 [59DB025B] [1F22792D]
15 84,9 [ABB7C1A1] [E1F3DE23]
16 95,8 [F5590527] [A9A7151A]
17 69,6 [821BEE3C] [027E5A62]
18 68,2 [583A2D08] [163AA18F]
19 97,5 [48222659] [847B9C64]
20 95,7 [6A0C412A] [F8DFF7C1]
21 95,2 [FF93535B] [8C5168E8]
22 80,9 [BFC83BE8] [59B795E4]
23 97,5 [81B24BB7] [89471AB8]

foobar2000 1.2 / Dynamic Range Meter 1.1.1
log date: 2013-12-07 13:00:16

––––––––––––––––––––––––––––––––––––––––
Analyzed: Jan A.P. Kaczmarek / Finding Neverland
––––––––––––––––––––––––––––––––––––––––

DR Peak RMS Duration Track
––––––––––––––––––––––––––––––––––––––––
DR12 -0.33 dB -17.12 dB 3:33 01-Where Is Mr. Barrie
DR10 -2.84 dB -17.48 dB 1:08 02-The Park
DR11 -1.87 dB -18.00 dB 2:04 03-Dancing With The Bear
DR10 -1.18 dB -17.25 dB 1:38 04-The Kite
DR10 -0.67 dB -15.88 dB 1:07 05-The Chess
DR14 -0.96 dB -21.52 dB 4:29 06-Neverland - Piano Variation In Blue
DR12 -2.29 dB -18.48 dB 1:29 07-The Spoon On The Nose
DR12 -0.50 dB -17.23 dB 2:12 08-The Pirates
DR10 -3.77 dB -19.80 dB 2:41 09-The Marriage
DR15 -3.22 dB -24.01 dB 3:15 10-Children Arrive
DR9 -5.03 dB -19.20 dB 1:04 11-Drive To The Cottage
DR11 -0.42 dB -15.75 dB 1:18 12-The Peter Pan Overture
DR10 -1.99 dB -17.18 dB 2:21 13-Peter
DR13 -0.42 dB -20.22 dB 5:24 14-The Park On Piano
DR11 -1.42 dB -17.74 dB 2:15 15-The Stairs
DR12 -0.37 dB -16.58 dB 3:26 16-Impossible Opening
DR10 -3.14 dB -18.71 dB 1:21 17-The Rehearsal
DR15 -3.32 dB -23.93 dB 3:39 18-Neverland - Minor Piano Variation
DR11 -0.22 dB -17.52 dB 1:22 19-The Play And The Flight
DR11 -0.37 dB -16.08 dB 4:02 20-This Is Neverland
DR10 -0.42 dB -15.94 dB 2:05 21-Why Does She Have To Die
DR12 -1.84 dB -17.43 dB 3:11 22-Another Bear
DR12 -0.22 dB -16.76 dB 3:31 23-Forgotten Overture
––––––––––––––––––––––––––––––––––––––––

Number of tracks: 23
Official DR value: DR11

Samplerate: 44100 Hz
Channels: 2
Bits per sample: 16
Bitrate: 634 kbps
Codec: FLAC
================================================================================

Jan A.P. Kaczmarek - Finding Neverland: Original Motion Picture Soundtrack (2004)

Jan A.P. Kaczmarek - Finding Neverland: Original Motion Picture Soundtrack (2004)

All thanks to original uploader

More Movies & Soundtracks in Efgrapha Blog