Isaac Hayes - The Spirit of Memphis 1962-1976 (2017) [4CD Box Set]

Isaac Hayes - The Spirit of Memphis 1962-1976 (2017) [4CD Box Set]

Isaac Hayes - The Spirit of Memphis 1962-1976 (2017) [4CD Box Set]
EAC Rip | FLAC (tracks)+cue, log, m3u | 1.70 GB
Label: Craft Recordings – CR00050 | Tracks: 66 | Time: 298:50 min
Soul, Funk, R&B

The Spirit of Memphis (1962-1976) chronicles the ascension of one of the greatest American musical talents the world has ever seen. From his humble beginnings as an orphaned sharecropper to his time as a session player, house songwriter, and producer for Stax Records, to his arrival as an artist in his own right as “Black Moses,” Hayes became a symbol for what was possible for Black America, perhaps best encapsulated by his barrier-busting Oscar-win for Best Original Song with “Theme From Shaft” in 1972. This four-CD set includes both songs written and produced by Hayes and performed by the other artists (Sam & Dave’s “Soul Man,” Carla Thomas’ “B-A-B-Y”), as well as a collection of Hayes’ best-loved hits (“Walk On By,” “Theme from Shaft”), plus a wealth of previously unreleased material. This essential collection examines the many facets of Isaac Hayes’ career and provides an essential survey of one of the most influential, genre-defining artists in American music history.

Tracklist:

Disc: 1
1. Sassy - Floyd Newman
2. Can't See You When I Want To - David Porter
3. How Do You Quit (Someone You Love) - Carla Thomas
4. Boot Leg - Booker T & The MG's
5. Candy - The Astors
6. Can't Do Nothing Without You - Danny White
7. I Had A Dream - Johnnie Taylor
8. Hold On I'm Coming - Sam & Dave
9. I'll Run Your Heart Away - Ruby Johnson
10. Let Me Be Good To You - Carla Thomas
11. Your Good Thing (Is About To End) - Mable John
12. Fighting To Win - Homer Banks
13. B-A-B-Y - Carla Thomas
14. Never Like This Before - William Bell
15. Patch My Heart - The Mad Lads
16. Little Bluebird - Johnnie Taylor
17. When Something Is Wrong With My Baby - Charlie Rich
18. Love Is After Me - Charlie Rich
19. You Can't Run Away From Your Heart - Judy Clay
20. Soul Man - Sam & Dave
21. As Long As I've Got You - The Charmels
22. I Thank You - Sam & Dave
23. The Sweeter He Is - The Soul Children
24. Stormy - Billy Eckstine
25. Can't See You When I Want To - David Porter
26. Show Me How - The Emotions

Disc: 2
1. The Big Dipper - Sir Isaac & The Do-Dads
2. Blue Groove - Sir Isaac & The Do-Dads
3. Precious, Precious
4. By The Time I Get To Phoenix
5. The Mistletoe And Me
6. Winter Snow
7. I Stand Accused
8. The Look Of Love
9. Never Can Say Goodbye
10. Theme From Shaft
11. Do Your Thing
12. Let's Stay Together
13. Ain't That Loving You (For More Reasons Than One) - Isaac Hayes, David Porter
14. Baby I'm A Want You - Isaac Hayes, David Porter
15. Theme From "The Men"
16. Rolling Down A Mountainside
17. Joy
18. Wonderful
19. Someone Made You For Me
20. Radio Spot: You Gotta Have It To Really Be In
21. Radio Spot: The Rapper Is Back

Disc: 3
1. When I Fall In Love
2. Walk On By
3. I Just Don't Know What To Do With Myself
4. Man's Temptation
5. Never Gonna Give You Up
6. Windows Of The World
7. The Ten Commandments Of Love
8. Just Want To Make Love To You / Rock Me Baby
9. Stormy Monday
10. I Stand Accused
11. If Loving You Is Wrong
12. His Eye Is On The Sparrow

Disc: 4
1. Ike's Mood I
2. You've Made Me So Very Happy
3. Black Militant's Place
4. Ain't No Sunshine
5. Hung Up On My Baby
6. Groove-A-Thon
7. Do Your Thing

Exact Audio Copy V1.3 from 2. September 2016

EAC extraction logfile from 1. January 2018, 19:11

Isaac Hayes / The Spirit Of Memphis: 1962-1976

Used drive : TSSTcorpCDDVDW SE-218GN Adapter: 1 ID: 1

Read mode : Secure
Utilize accurate stream : Yes
Defeat audio cache : Yes
Make use of C2 pointers : No

Read offset correction : 6
Overread into Lead-In and Lead-Out : No
Fill up missing offset samples with silence : Yes
Delete leading and trailing silent blocks : No
Null samples used in CRC calculations : Yes
Used interface : Native Win32 interface for Win NT & 2000
Gap handling : Appended to previous track

Used output format : User Defined Encoder
Selected bitrate : 768 kBit/s
Quality : High
Add ID3 tag : No
Command line compressor : C:\Program Files (x86)\Exact Audio Copy\FLAC\FLAC.EXE
Additional command line options : -8 -e -p -V -T "ARTIST=%artist%" -T "TITLE=%title%" -T "ALBUM=%albumtitle%" -T "DATE=%year%" -T "TRACKNUMBER=%tracknr%" -T "GENRE=%genre%" -T "PERFORMER=%albuminterpret%" -T "COMPOSER=%composer%" %haslyrics%–tag-from-file=LYRICS="%lyricsfile%"%haslyrics% -T "ALBUMARTIST=%albumartist%" -T "DISCNUMBER=%cdnumber%" -T "TOTALDISCS=%totalcds%" -T "TOTALTRACKS=%numtracks%" -T "COMMENT=%comment%" %source% -o %dest%


TOC of the extracted CD

Track | Start | Length | Start sector | End sector
––––––––––––––––––––––––––––-
1 | 0:00.00 | 2:12.74 | 0 | 9973
2 | 2:12.74 | 2:54.22 | 9974 | 23045
3 | 5:07.21 | 2:54.60 | 23046 | 36155
4 | 8:02.06 | 2:06.29 | 36156 | 45634
5 | 10:08.35 | 3:01.58 | 45635 | 59267
6 | 13:10.18 | 3:02.73 | 59268 | 72990
7 | 16:13.16 | 3:04.33 | 72991 | 86823
8 | 19:17.49 | 2:35.73 | 86824 | 98521
9 | 21:53.47 | 3:10.41 | 98522 | 112812
10 | 25:04.13 | 2:44.21 | 112813 | 125133
11 | 27:48.34 | 2:58.72 | 125134 | 138555
12 | 30:47.31 | 3:08.20 | 138556 | 152675
13 | 33:55.51 | 2:57.47 | 152676 | 165997
14 | 36:53.23 | 3:01.18 | 165998 | 179590
15 | 39:54.41 | 2:32.60 | 179591 | 191050
16 | 42:27.26 | 2:56.23 | 191051 | 204273
17 | 45:23.49 | 2:48.47 | 204274 | 216920
18 | 48:12.21 | 2:25.07 | 216921 | 227802
19 | 50:37.28 | 2:54.70 | 227803 | 240922
20 | 53:32.23 | 2:39.62 | 240923 | 252909
21 | 56:12.10 | 2:40.51 | 252910 | 264960
22 | 58:52.61 | 2:46.28 | 264961 | 277438
23 | 61:39.14 | 6:21.48 | 277439 | 306061
24 | 68:00.62 | 3:56.30 | 306062 | 323791
25 | 71:57.17 | 4:28.33 | 323792 | 343924
26 | 76:25.50 | 3:05.19 | 343925 | 357818


Track 1

Filename C:\CD rips\01 - Floyd Newman - Sassy.wav

Pre-gap length 0:00:02.00

Peak level 99.7 %
Extraction speed 2.6 X
Track quality 100.0 %
Test CRC 6C93AF6A
Copy CRC 6C93AF6A
Copy OK

Track 2

Filename C:\CD rips\02 - David Porter - Can’t See You When I Want To.wav

Pre-gap length 0:00:02.10

Peak level 99.7 %
Extraction speed 2.2 X
Track quality 99.9 %
Test CRC 799D9EFF
Copy CRC 799D9EFF
Copy OK

Track 3

Filename C:\CD rips\03 - Carla Thomas - How Do You Quit (Someone You Love).wav

Pre-gap length 0:00:01.67

Peak level 99.7 %
Extraction speed 3.1 X
Track quality 100.0 %
Test CRC 14E36356
Copy CRC 14E36356
Copy OK

Track 4

Filename C:\CD rips\04 - Booker T. & The MG’s - Boot-Leg.wav

Pre-gap length 0:00:02.10

Peak level 99.7 %
Extraction speed 3.0 X
Track quality 100.0 %
Test CRC 967FF165
Copy CRC 967FF165
Copy OK

Track 5

Filename C:\CD rips\05 - The Astors - Candy.wav

Pre-gap length 0:00:02.16

Peak level 99.7 %
Extraction speed 3.4 X
Track quality 100.0 %
Test CRC 683EDBB6
Copy CRC 683EDBB6
Copy OK

Track 6

Filename C:\CD rips\06 - Danny White - Can’t Do Nothing Without You.wav

Pre-gap length 0:00:02.41

Peak level 93.9 %
Extraction speed 3.5 X
Track quality 100.0 %
Test CRC 76562DD5
Copy CRC 76562DD5
Copy OK

Track 7

Filename C:\CD rips\07 - Johnnie Taylor - I Had a Dream.wav

Pre-gap length 0:00:01.31

Peak level 99.7 %
Extraction speed 3.7 X
Track quality 100.0 %
Test CRC 6236A67D
Copy CRC 6236A67D
Copy OK

Track 8

Filename C:\CD rips\08 - Sam & Dave - Hold on I’m Coming.wav

Pre-gap length 0:00:02.02

Peak level 99.7 %
Extraction speed 3.7 X
Track quality 100.0 %
Test CRC 3704FCD1
Copy CRC 3704FCD1
Copy OK

Track 9

Filename C:\CD rips\09 - Ruby Johnson - I’ll Run Your Heart Away.wav

Pre-gap length 0:00:01.47

Peak level 99.7 %
Extraction speed 3.0 X
Track quality 99.9 %
Test CRC F7686EB9
Copy CRC F7686EB9
Copy OK

Track 10

Filename C:\CD rips\10 - Carla Thomas - Let Me Be Good to You.wav

Pre-gap length 0:00:03.24

Peak level 99.7 %
Extraction speed 4.0 X
Track quality 100.0 %
Test CRC 4AD82C58
Copy CRC 4AD82C58
Copy OK

Track 11

Filename C:\CD rips\11 - Mable John - Your Good Thing (Is About to End).wav

Pre-gap length 0:00:03.22

Peak level 98.1 %
Extraction speed 3.2 X
Track quality 99.9 %
Test CRC 59F7C97A
Copy CRC 59F7C97A
Copy OK

Track 12

Filename C:\CD rips\12 - Homer Banks - Fighting to Win.wav

Pre-gap length 0:00:02.57

Peak level 99.7 %
Extraction speed 4.3 X
Track quality 100.0 %
Test CRC 94220D28
Copy CRC 94220D28
Copy OK

Track 13

Filename C:\CD rips\13 - Carla Thomas - B-A-B-Y.wav

Pre-gap length 0:00:01.72

Peak level 99.7 %
Extraction speed 3.3 X
Track quality 99.9 %
Test CRC 89953BD7
Copy CRC 89953BD7
Copy OK

Track 14

Filename C:\CD rips\14 - William Bell - Never Like This Before.wav

Pre-gap length 0:00:03.37

Peak level 99.7 %
Extraction speed 3.4 X
Track quality 99.9 %
Test CRC C25FB02E
Copy CRC C25FB02E
Copy OK

Track 15

Filename C:\CD rips\15 - The Mad Lads - Patch My Heart.wav

Pre-gap length 0:00:01.59

Peak level 99.7 %
Extraction speed 4.6 X
Track quality 100.0 %
Test CRC 2F05EE9C
Copy CRC 2F05EE9C
Copy OK

Track 16

Filename C:\CD rips\16 - Johnnie Taylor - Little Bluebird.wav

Pre-gap length 0:00:01.63

Peak level 99.7 %
Extraction speed 3.5 X
Track quality 99.9 %
Test CRC 910CA6B8
Copy CRC 910CA6B8
Copy OK

Track 17

Filename C:\CD rips\17 - Charlie Rich - When Something Is Wrong With My Baby.wav

Pre-gap length 0:00:02.08

Peak level 99.7 %
Extraction speed 3.5 X
Track quality 99.9 %
Test CRC C1A418AA
Copy CRC C1A418AA
Copy OK

Track 18

Filename C:\CD rips\18 - Charlie Rich - Love Is After Me.wav

Pre-gap length 0:00:02.59

Peak level 99.7 %
Extraction speed 3.3 X
Track quality 99.9 %
Test CRC A12427CF
Copy CRC A12427CF
Copy OK

Track 19

Filename C:\CD rips\19 - Judy Clay - You Can’t Run Away From Your Heart.wav

Pre-gap length 0:00:01.69

Peak level 99.7 %
Extraction speed 3.7 X
Track quality 99.9 %
Test CRC A2FB338E
Copy CRC A2FB338E
Copy OK

Track 20

Filename C:\CD rips\20 - Sam & Dave - Soul Man.wav

Pre-gap length 0:00:00.74

Peak level 99.7 %
Extraction speed 5.0 X
Track quality 100.0 %
Test CRC FCDEFC08
Copy CRC FCDEFC08
Copy OK

Track 21

Filename C:\CD rips\21 - The Charmels - As Long as I’ve Got You.wav

Pre-gap length 0:00:02.04

Peak level 99.7 %
Extraction speed 3.7 X
Track quality 99.9 %
Test CRC 0EAD9A5A
Copy CRC 0EAD9A5A
Copy OK

Track 22

Filename C:\CD rips\22 - Sam & Dave - I Thank You.wav

Pre-gap length 0:00:02.43

Peak level 99.7 %
Extraction speed 4.9 X
Track quality 100.0 %
Test CRC 9A326B23
Copy CRC 9A326B23
Copy OK

Track 23

Filename C:\CD rips\23 - The Soul Children - The Sweeter He Is, Part I & II.wav

Pre-gap length 0:00:02.53

Peak level 99.7 %
Extraction speed 5.7 X
Track quality 100.0 %
Test CRC 73761156
Copy CRC 73761156
Copy OK

Track 24

Filename C:\CD rips\24 - Billy Eckstine - Stormy.wav

Pre-gap length 0:00:02.23

Peak level 99.7 %
Extraction speed 4.5 X
Track quality 99.9 %
Test CRC 557CFAFC
Copy CRC 557CFAFC
Copy OK

Track 25

Filename C:\CD rips\25 - David Porter - Can’t See You When I Want To.wav

Pre-gap length 0:00:02.47

Peak level 99.7 %
Extraction speed 6.0 X
Track quality 100.0 %
Test CRC 234FB274
Copy CRC 234FB274
Copy OK

Track 26

Filename C:\CD rips\26 - The Emotions - Show Me How.wav

Pre-gap length 0:00:01.71

Peak level 99.7 %
Extraction speed 4.3 X
Track quality 99.9 %
Test CRC B279D11E
Copy CRC B279D11E
Copy OK

No errors occurred

End of status report

–– CUETools DB Plugin V2.1.6

[CTDB TOCID: Zd.kmS2xqOrs_GLRbMuqpkXhJEk-] found
Submit result: already submitted
Track | CTDB Status
1 | (8/8) Accurately ripped
2 | (8/8) Accurately ripped
3 | (8/8) Accurately ripped
4 | (8/8) Accurately ripped
5 | (8/8) Accurately ripped
6 | (8/8) Accurately ripped
7 | (8/8) Accurately ripped
8 | (8/8) Accurately ripped
9 | (8/8) Accurately ripped
10 | (8/8) Accurately ripped
11 | (8/8) Accurately ripped
12 | (8/8) Accurately ripped
13 | (8/8) Accurately ripped
14 | (8/8) Accurately ripped
15 | (8/8) Accurately ripped
16 | (8/8) Accurately ripped
17 | (8/8) Accurately ripped
18 | (8/8) Accurately ripped
19 | (8/8) Accurately ripped
20 | (8/8) Accurately ripped
21 | (8/8) Accurately ripped
22 | (8/8) Accurately ripped
23 | (8/8) Accurately ripped
24 | (8/8) Accurately ripped
25 | (8/8) Accurately ripped
26 | (8/8) Accurately ripped


==== Log checksum C75FC637E0F03785EC5DB6CBF2A6BAFCEB2DEE3929F4DCCB30F39D2228052DA5 ====

Exact Audio Copy V1.3 from 2. September 2016

EAC extraction logfile from 2. January 2018, 15:07

Isaac Hayes / The Spirit Of Memphis: 1962-1976

Used drive : TSSTcorpCDDVDW SE-218GN Adapter: 1 ID: 1

Read mode : Secure
Utilize accurate stream : Yes
Defeat audio cache : Yes
Make use of C2 pointers : No

Read offset correction : 6
Overread into Lead-In and Lead-Out : No
Fill up missing offset samples with silence : Yes
Delete leading and trailing silent blocks : No
Null samples used in CRC calculations : Yes
Used interface : Native Win32 interface for Win NT & 2000
Gap handling : Appended to previous track

Used output format : User Defined Encoder
Selected bitrate : 768 kBit/s
Quality : High
Add ID3 tag : No
Command line compressor : C:\Program Files (x86)\Exact Audio Copy\FLAC\FLAC.EXE
Additional command line options : -8 -e -p -V -T "ARTIST=%artist%" -T "TITLE=%title%" -T "ALBUM=%albumtitle%" -T "DATE=%year%" -T "TRACKNUMBER=%tracknr%" -T "GENRE=%genre%" -T "PERFORMER=%albuminterpret%" -T "COMPOSER=%composer%" %haslyrics%–tag-from-file=LYRICS="%lyricsfile%"%haslyrics% -T "ALBUMARTIST=%albumartist%" -T "DISCNUMBER=%cdnumber%" -T "TOTALDISCS=%totalcds%" -T "TOTALTRACKS=%numtracks%" -T "COMMENT=%comment%" %source% -o %dest%


TOC of the extracted CD

Track | Start | Length | Start sector | End sector
––––––––––––––––––––––––––––-
1 | 0:00.00 | 2:24.38 | 0 | 10837
2 | 2:24.38 | 2:34.40 | 10838 | 22427
3 | 4:59.03 | 2:44.10 | 22428 | 34737
4 | 7:43.13 | 6:56.43 | 34738 | 65980
5 | 14:39.56 | 3:58.12 | 65981 | 83842
6 | 18:37.68 | 2:58.02 | 83843 | 97194
7 | 21:35.70 | 4:06.13 | 97195 | 115657
8 | 25:42.08 | 3:18.69 | 115658 | 130576
9 | 29:01.02 | 3:38.68 | 130577 | 146994
10 | 32:39.70 | 3:17.19 | 146995 | 161788
11 | 35:57.14 | 3:19.24 | 161789 | 176737
12 | 39:16.38 | 3:47.67 | 176738 | 193829
13 | 43:04.30 | 4:24.43 | 193830 | 213672
14 | 47:28.73 | 4:39.62 | 213673 | 234659
15 | 52:08.60 | 4:01.65 | 234660 | 252799
16 | 56:10.50 | 4:17.38 | 252800 | 272112
17 | 60:28.13 | 4:38.27 | 272113 | 292989
18 | 65:06.40 | 3:39.58 | 292990 | 309472
19 | 68:46.23 | 4:03.63 | 309473 | 327760
20 | 72:50.11 | 1:02.18 | 327761 | 332428
21 | 73:52.29 | 0:31.53 | 332429 | 334806


Track 1

Filename C:\CD rips\01 - Sir Isaac & The Do-Dads - The Big Dipper.wav

Pre-gap length 0:00:02.00

Peak level 99.7 %
Extraction speed 2.0 X
Track quality 100.0 %
Test CRC 95EC7BD7
Copy CRC 95EC7BD7
Copy OK

Track 2

Filename C:\CD rips\02 - Sir Isaac & The Do-Dads - Blue Groove.wav

Pre-gap length 0:00:01.25

Peak level 99.1 %
Extraction speed 2.2 X
Track quality 100.0 %
Test CRC 37C61886
Copy CRC 37C61886
Copy OK

Track 3

Filename C:\CD rips\03 - Isaac Hayes - Precious, Precious.wav

Pre-gap length 0:00:01.71

Peak level 99.7 %
Extraction speed 2.4 X
Track quality 100.0 %
Test CRC D9A6C1DE
Copy CRC D9A6C1DE
Copy OK

Track 4

Filename C:\CD rips\04 - Isaac Hayes - By the Time I Get to Phoenix.wav

Pre-gap length 0:00:02.22

Peak level 99.7 %
Extraction speed 2.9 X
Track quality 100.0 %
Test CRC 7A394793
Copy CRC 7A394793
Copy OK

Track 5

Filename C:\CD rips\05 - Isaac Hayes - The Mistletoe and Me.wav

Pre-gap length 0:00:01.49

Peak level 99.7 %
Extraction speed 3.0 X
Track quality 100.0 %
Test CRC A69F44B5
Copy CRC A69F44B5
Copy OK

Track 6

Filename C:\CD rips\06 - Isaac Hayes - Winter Snow.wav

Pre-gap length 0:00:02.06

Peak level 98.1 %
Extraction speed 2.9 X
Track quality 100.0 %
Test CRC 5DF4D0F1
Copy CRC 5DF4D0F1
Copy OK

Track 7

Filename C:\CD rips\07 - Isaac Hayes - I Stand Accused.wav

Pre-gap length 0:00:02.21

Peak level 99.7 %
Extraction speed 3.2 X
Track quality 100.0 %
Test CRC D54B2D43
Copy CRC D54B2D43
Copy OK

Track 8

Filename C:\CD rips\08 - Isaac Hayes - The Look of Love.wav

Pre-gap length 0:00:02.42

Peak level 99.7 %
Extraction speed 3.3 X
Track quality 100.0 %
Test CRC 4E8B7F50
Copy CRC 4E8B7F50
Copy OK

Track 9

Filename C:\CD rips\09 - Isaac Hayes - Never Can Say Goodbye.wav

Pre-gap length 0:00:01.53

Peak level 99.7 %
Extraction speed 3.4 X
Track quality 100.0 %
Test CRC CEC7C7C7
Copy CRC CEC7C7C7
Copy OK

Track 10

Filename C:\CD rips\10 - Isaac Hayes - Theme From Shaft.wav

Pre-gap length 0:00:02.47

Peak level 99.7 %
Extraction speed 3.5 X
Track quality 100.0 %
Test CRC 57363149
Copy CRC 57363149
Copy OK

Track 11

Filename C:\CD rips\11 - Isaac Hayes - Do Your Thing.wav

Pre-gap length 0:00:02.02

Peak level 99.7 %
Extraction speed 3.6 X
Track quality 100.0 %
Test CRC 808FF9A6
Copy CRC 808FF9A6
Copy OK

Track 12

Filename C:\CD rips\12 - Isaac Hayes - Let’s Stay Together.wav

Pre-gap length 0:00:01.01

Peak level 99.8 %
Extraction speed 3.8 X
Track quality 100.0 %
Test CRC E776F720
Copy CRC E776F720
Copy OK

Track 13

Filename C:\CD rips\13 - Isaac Hayes & David Porter - Ain’t That Loving You (For More Reasons Than One).wav

Pre-gap length 0:00:01.46

Peak level 99.7 %
Extraction speed 3.3 X
Track quality 99.9 %
Test CRC 6F3E3317
Copy CRC 6F3E3317
Copy OK

Track 14

Filename C:\CD rips\14 - Isaac Hayes & David Porter - Baby I’m-A Want You.wav

Pre-gap length 0:00:02.23

Peak level 99.7 %
Extraction speed 3.4 X
Track quality 99.9 %
Test CRC 42AF3BD3
Copy CRC 42AF3BD3
Copy OK

Track 15

Filename C:\CD rips\15 - Isaac Hayes - Theme From ''The Men''.wav

Pre-gap length 0:00:02.24

Peak level 99.7 %
Extraction speed 4.2 X
Track quality 100.0 %
Test CRC 135E93D1
Copy CRC 135E93D1
Copy OK

Track 16

Filename C:\CD rips\16 - Isaac Hayes - Rolling Down a Mountainside.wav

Pre-gap length 0:00:01.17

Peak level 95.2 %
Extraction speed 4.3 X
Track quality 100.0 %
Test CRC 6113A8CC
Copy CRC 6113A8CC
Copy OK

Track 17

Filename C:\CD rips\17 - Isaac Hayes - Joy, Part 1.wav

Pre-gap length 0:00:01.53

Peak level 99.7 %
Extraction speed 4.5 X
Track quality 100.0 %
Test CRC FD8DAC4A
Copy CRC FD8DAC4A
Copy OK

Track 18

Filename C:\CD rips\18 - Isaac Hayes - Wonderful.wav

Pre-gap length 0:00:02.53

Peak level 99.7 %
Extraction speed 3.5 X
Track quality 99.9 %
Test CRC F4517EC6
Copy CRC F4517EC6
Copy OK

Track 19

Filename C:\CD rips\19 - Isaac Hayes - Someone Made You for Me.wav

Pre-gap length 0:00:01.55

Peak level 99.7 %
Extraction speed 4.6 X
Track quality 100.0 %
Test CRC F01776D2
Copy CRC F01776D2
Copy OK

Track 20

Filename C:\CD rips\20 - Isaac Hayes - Radio Spot- You Gotta Have It to Really Be In.wav

Pre-gap length 0:00:01.35

Peak level 99.2 %
Extraction speed 3.2 X
Track quality 100.0 %
Test CRC 348DB49C
Copy CRC 348DB49C
Copy OK

Track 21

Filename C:\CD rips\21 - Isaac Hayes - Radio Spot- The Rapper Is Back.wav

Pre-gap length 0:00:02.06

Peak level 99.7 %
Extraction speed 2.3 X
Track quality 100.0 %
Test CRC A803F15C
Copy CRC A803F15C
Copy OK

No errors occurred

End of status report

–– CUETools DB Plugin V2.1.6

[CTDB TOCID: UFYOoy9f9fiO9iq8SGHhK0cb0d0-] found
Submit result: already submitted
Track | CTDB Status
1 | (7/7) Accurately ripped
2 | (7/7) Accurately ripped
3 | (7/7) Accurately ripped
4 | (7/7) Accurately ripped
5 | (7/7) Accurately ripped
6 | (7/7) Accurately ripped
7 | (7/7) Accurately ripped
8 | (7/7) Accurately ripped
9 | (7/7) Accurately ripped
10 | (7/7) Accurately ripped
11 | (7/7) Accurately ripped
12 | (7/7) Accurately ripped
13 | (7/7) Accurately ripped
14 | (7/7) Accurately ripped
15 | (7/7) Accurately ripped
16 | (7/7) Accurately ripped
17 | (7/7) Accurately ripped
18 | (7/7) Accurately ripped
19 | (7/7) Accurately ripped
20 | (7/7) Accurately ripped
21 | (7/7) Accurately ripped


==== Log checksum 40693E3EBAC549B05996F58DCB317AC593B8B6FEA58437032C2DBC282710C1F1 ====

Exact Audio Copy V1.3 from 2. September 2016

EAC extraction logfile from 2. January 2018, 16:22

Isaac Hayes / The Spirit Of Memphis: 1962-1976

Used drive : TSSTcorpCDDVDW SE-218GN Adapter: 1 ID: 1

Read mode : Secure
Utilize accurate stream : Yes
Defeat audio cache : Yes
Make use of C2 pointers : No

Read offset correction : 6
Overread into Lead-In and Lead-Out : No
Fill up missing offset samples with silence : Yes
Delete leading and trailing silent blocks : No
Null samples used in CRC calculations : Yes
Used interface : Native Win32 interface for Win NT & 2000
Gap handling : Appended to previous track

Used output format : User Defined Encoder
Selected bitrate : 768 kBit/s
Quality : High
Add ID3 tag : No
Command line compressor : C:\Program Files (x86)\Exact Audio Copy\FLAC\FLAC.EXE
Additional command line options : -8 -e -p -V -T "ARTIST=%artist%" -T "TITLE=%title%" -T "ALBUM=%albumtitle%" -T "DATE=%year%" -T "TRACKNUMBER=%tracknr%" -T "GENRE=%genre%" -T "PERFORMER=%albuminterpret%" -T "COMPOSER=%composer%" %haslyrics%–tag-from-file=LYRICS="%lyricsfile%"%haslyrics% -T "ALBUMARTIST=%albumartist%" -T "DISCNUMBER=%cdnumber%" -T "TOTALDISCS=%totalcds%" -T "TOTALTRACKS=%numtracks%" -T "COMMENT=%comment%" %source% -o %dest%


TOC of the extracted CD

Track | Start | Length | Start sector | End sector
––––––––––––––––––––––––––––-
1 | 0:00.00 | 3:32.10 | 0 | 15909
2 | 3:32.10 | 11:59.38 | 15910 | 69872
3 | 15:31.48 | 7:02.16 | 69873 | 101538
4 | 22:33.64 | 5:02.02 | 101539 | 124190
5 | 27:35.66 | 5:46.58 | 124191 | 150198
6 | 33:22.49 | 5:47.52 | 150199 | 176275
7 | 39:10.26 | 3:55.60 | 176276 | 193960
8 | 43:06.11 | 3:44.63 | 193961 | 210823
9 | 46:50.74 | 3:12.50 | 210824 | 225273
10 | 50:03.49 | 6:01.58 | 225274 | 252406
11 | 56:05.32 | 4:29.62 | 252407 | 272643
12 | 60:35.19 | 5:59.57 | 272644 | 299625


Track 1

Filename C:\CD rips\01 - When I Fall in Love.wav

Pre-gap length 0:00:02.00

Peak level 99.8 %
Extraction speed 2.0 X
Track quality 99.9 %
Test CRC B79D4771
Copy CRC B79D4771
Accurately ripped (confidence 2) [FB861CCB] (AR v2)
Copy OK

Track 2

Filename C:\CD rips\02 - Walk on By.wav

Pre-gap length 0:00:01.51

Peak level 96.7 %
Extraction speed 3.3 X
Track quality 100.0 %
Test CRC CC0BFA8F
Copy CRC CC0BFA8F
Accurately ripped (confidence 2) [C3DEB448] (AR v2)
Copy OK

Track 3

Filename C:\CD rips\03 - I Just Don’t Know What to Do With Myself.wav

Pre-gap length 0:00:02.31

Peak level 96.6 %
Extraction speed 3.7 X
Track quality 100.0 %
Test CRC CD971534
Copy CRC CD971534
Accurately ripped (confidence 2) [AAA6581A] (AR v2)
Copy OK

Track 4

Filename C:\CD rips\04 - Man’s Temptation.wav

Pre-gap length 0:00:01.41

Peak level 99.7 %
Extraction speed 3.9 X
Track quality 100.0 %
Test CRC 76EEB494
Copy CRC 76EEB494
Accurately ripped (confidence 2) [5013E7E2] (AR v2)
Copy OK

Track 5

Filename C:\CD rips\05 - Never Gonna Give You Up.wav

Pre-gap length 0:00:00.51

Peak level 99.7 %
Extraction speed 4.2 X
Track quality 100.0 %
Test CRC 374BF9C8
Copy CRC 374BF9C8
Accurately ripped (confidence 2) [DAA5C8E4] (AR v2)
Copy OK

Track 6

Filename C:\CD rips\06 - Windows of the World.wav

Pre-gap length 0:00:01.16

Peak level 99.7 %
Extraction speed 4.4 X
Track quality 100.0 %
Test CRC 528271FA
Copy CRC 528271FA
Accurately ripped (confidence 2) [B07BCE5C] (AR v2)
Copy OK

Track 7

Filename C:\CD rips\07 - The Ten Commandments of Love.wav

Pre-gap length 0:00:01.62

Peak level 99.8 %
Extraction speed 4.4 X
Track quality 100.0 %
Test CRC E0F769A0
Copy CRC E0F769A0
Accurately ripped (confidence 2) [A0525B6E] (AR v2)
Copy OK

Track 8

Filename C:\CD rips\08 - Just Want to Make Love to You , Rock Me Baby.wav

Peak level 79.7 %
Extraction speed 4.6 X
Track quality 100.0 %
Test CRC C7A15A3F
Copy CRC C7A15A3F
Accurately ripped (confidence 2) [5F483878] (AR v2)
Copy OK

Track 9

Filename C:\CD rips\09 - Stormy Monday.wav

Peak level 99.7 %
Extraction speed 4.6 X
Track quality 100.0 %
Test CRC 4C8CC586
Copy CRC 4C8CC586
Accurately ripped (confidence 2) [DD4D889B] (AR v2)
Copy OK

Track 10

Filename C:\CD rips\10 - I Stand Accused.wav

Peak level 99.7 %
Extraction speed 5.1 X
Track quality 100.0 %
Test CRC 8771588C
Copy CRC 8771588C
Accurately ripped (confidence 2) [9FFF3331] (AR v2)
Copy OK

Track 11

Filename C:\CD rips\11 - If Loving You Is Wrong.wav

Peak level 99.7 %
Extraction speed 5.1 X
Track quality 100.0 %
Test CRC C7AB49B0
Copy CRC C7AB49B0
Accurately ripped (confidence 2) [59599C3C] (AR v2)
Copy OK

Track 12

Filename C:\CD rips\12 - His Eye Is on the Sparrow.wav

Pre-gap length 0:00:02.03

Peak level 99.7 %
Extraction speed 5.4 X
Track quality 100.0 %
Test CRC DC2A34E7
Copy CRC DC2A34E7
Accurately ripped (confidence 2) [4F276F14] (AR v2)
Copy OK


All tracks accurately ripped

No errors occurred

End of status report

–– CUETools DB Plugin V2.1.6

[CTDB TOCID: v9y6CA2HCZC_4e2H_GWnHt1mh3g-] found
Submit result: already submitted
Track | CTDB Status
1 | (7/7) Accurately ripped
2 | (7/7) Accurately ripped
3 | (7/7) Accurately ripped
4 | (7/7) Accurately ripped
5 | (7/7) Accurately ripped
6 | (7/7) Accurately ripped
7 | (7/7) Accurately ripped
8 | (7/7) Accurately ripped
9 | (7/7) Accurately ripped
10 | (7/7) Accurately ripped
11 | (7/7) Accurately ripped
12 | (7/7) Accurately ripped


==== Log checksum A414055C7FA9EF3F06F8108502FD330A7F4C5ABC8873EF24DD3CFA3B9161F20C ====

Exact Audio Copy V1.3 from 2. September 2016

EAC extraction logfile from 2. January 2018, 17:09

Isaac Hayes / The Spirit Of Memphis: 1962-1976

Used drive : TSSTcorpCDDVDW SE-218GN Adapter: 1 ID: 1

Read mode : Secure
Utilize accurate stream : Yes
Defeat audio cache : Yes
Make use of C2 pointers : No

Read offset correction : 6
Overread into Lead-In and Lead-Out : No
Fill up missing offset samples with silence : Yes
Delete leading and trailing silent blocks : No
Null samples used in CRC calculations : Yes
Used interface : Native Win32 interface for Win NT & 2000
Gap handling : Appended to previous track

Used output format : User Defined Encoder
Selected bitrate : 768 kBit/s
Quality : High
Add ID3 tag : No
Command line compressor : C:\Program Files (x86)\Exact Audio Copy\FLAC\FLAC.EXE
Additional command line options : -8 -e -p -V -T "ARTIST=%artist%" -T "TITLE=%title%" -T "ALBUM=%albumtitle%" -T "DATE=%year%" -T "TRACKNUMBER=%tracknr%" -T "GENRE=%genre%" -T "PERFORMER=%albuminterpret%" -T "COMPOSER=%composer%" %haslyrics%–tag-from-file=LYRICS="%lyricsfile%"%haslyrics% -T "ALBUMARTIST=%albumartist%" -T "DISCNUMBER=%cdnumber%" -T "TOTALDISCS=%totalcds%" -T "TOTALTRACKS=%numtracks%" -T "COMMENT=%comment%" %source% -o %dest%


TOC of the extracted CD

Track | Start | Length | Start sector | End sector
––––––––––––––––––––––––––––-
1 | 0:00.00 | 6:34.12 | 0 | 29561
2 | 6:34.12 | 5:37.02 | 29562 | 54838
3 | 12:11.14 | 3:37.49 | 54839 | 71162
4 | 15:48.63 | 3:39.15 | 71163 | 87602
5 | 19:28.03 | 7:34.67 | 87603 | 121719
6 | 27:02.70 | 18:50.08 | 121720 | 206477
7 | 45:53.03 | 33:02.53 | 206478 | 355180


Track 1

Filename C:\CD rips\01 - Ike’s Mood I.wav

Pre-gap length 0:00:02.00

Peak level 99.9 %
Extraction speed 3.2 X
Track quality 100.0 %
Test CRC FB892EF2
Copy CRC FB892EF2
Accurately ripped (confidence 2) [ADC23A28] (AR v2)
Copy OK

Track 2

Filename C:\CD rips\02 - You’ve Made Me So Very Happy.wav

Pre-gap length 0:00:02.64

Peak level 99.7 %
Extraction speed 3.5 X
Track quality 100.0 %
Test CRC 7D21A006
Copy CRC 7D21A006
Accurately ripped (confidence 2) [25EEC345] (AR v2)
Copy OK

Track 3

Filename C:\CD rips\03 - Black Militant’s Place.wav

Pre-gap length 0:00:01.22

Peak level 98.6 %
Extraction speed 3.6 X
Track quality 100.0 %
Test CRC 861C9505
Copy CRC 861C9505
Accurately ripped (confidence 2) [E9AA4CAF] (AR v2)
Copy OK

Track 4

Filename C:\CD rips\04 - Ain’t No Sunshine.wav

Pre-gap length 0:00:02.64

Peak level 92.8 %
Extraction speed 3.8 X
Track quality 100.0 %
Test CRC 1B059A3C
Copy CRC 1B059A3C
Accurately ripped (confidence 2) [AFDB6356] (AR v2)
Copy OK

Track 5

Filename C:\CD rips\05 - Hung Up on My Baby (extended jam).wav

Pre-gap length 0:00:01.16

Peak level 99.7 %
Extraction speed 4.4 X
Track quality 100.0 %
Test CRC 72AD1540
Copy CRC 72AD1540
Accurately ripped (confidence 2) [0379F655] (AR v2)
Copy OK

Track 6

Filename C:\CD rips\06 - Groove-A-Thon (extended jam).wav

Pre-gap length 0:00:03.51

Peak level 99.9 %
Extraction speed 4.8 X
Track quality 99.9 %
Test CRC EF32E000
Copy CRC EF32E000
Accurately ripped (confidence 2) [FBEF2202] (AR v2)
Copy OK

Track 7

Filename C:\CD rips\07 - Do Your Thing (extended jam).wav

Pre-gap length 0:00:02.50

Peak level 99.9 %
Extraction speed 5.5 X
Track quality 99.9 %
Test CRC FB72408C
Copy CRC FB72408C
Accurately ripped (confidence 2) [1AD4F513] (AR v2)
Copy OK


All tracks accurately ripped

No errors occurred

End of status report

–– CUETools DB Plugin V2.1.6

[CTDB TOCID: AFRZL3jc.Rglppfw2vetg8LQ5wg-] found
Submit result: already submitted
Track | CTDB Status
1 | (6/6) Accurately ripped
2 | (6/6) Accurately ripped
3 | (6/6) Accurately ripped
4 | (6/6) Accurately ripped
5 | (6/6) Accurately ripped
6 | (6/6) Accurately ripped
7 | (6/6) Accurately ripped


==== Log checksum 9DC4E225CDBC7ABFD2B1065A573F5CA6D51D17DB75B55AADE02AF6FF364B150B ====


Thanks to the Original customer.