The Apprentice: You're Fired! S13E07

720p (HD) / WEB-DL IMDb
The Apprentice: You're Fired! S13E07

The Apprentice: You're Fired! S13E07
WEB-DL | MKV | 1280x720 | English | H264 @ 2302 kbps | AAC @ 317 kbps | 28 min 45 s | 539 MiB

The Apprentice: You're Fired!, sometimes named You're Fired!, The Apprentice: You're Hired! or You're Hired!, is a British television show made by the BBC and filmed at Riverside Studios as a spin-off from the reality TV hit The Apprentice. It was hosted by Adrian Chiles from 2006 to 2009, and Dara Ó Briain took over as host in 2010 after Chiles' move to ITV. The programme airs in a 30 minute slot after each episode of The Apprentice finishes. It was originally shown on BBC Three, but moved to BBC Two in 2007. Its format is similar to that of Big Brother's Little Brother and Strictly Come Dancing: It Takes Two. The final episode of each series is renamed "The Apprentice: You're Hired!" and involves interviews with the winner, the runner-up and Lord Sugar himself, and a reunion with all of the former candidates.

The.Apprentice.Youre.Fired.S13E07.720p.iP.WEB-DL.AAC2.0.H.264-BTW.mkv (539.4 MB)



General
Unique ID : 170171470665661027668859937053854374557 (0x8005D546460F11AA3431A8FFE0FF9A9D)
Complete name : ./The.Apprentice.Youre.Fired.S13E07.720p.iP.WEB-DL.AAC2.0.H.264-BTW.mkv
Format : Matroska
Format version : Version 4 / Version 2
File size : 539 MiB
Duration : 28 min 45 s
Overall bit rate mode : Variable
Overall bit rate : 2 623 kb/s
Encoded date : UTC 2017-11-15 22:36:41
Writing application : mkvmerge v15.0.0 ('Duel with the Devil') 64-bit
Writing library : libebml v1.3.5 + libmatroska v1.4.5

Video
ID : 2
Format : AVC
Format/Info : Advanced Video Codec
Format profile : High@L4.1
Format settings : CABAC / 2 Ref Frames
Format settings, CABAC : Yes
Format settings, RefFrames : 2 frames
Codec ID : V_MPEG4/ISO/AVC
Duration : 28 min 45 s
Bit rate mode : Variable
Bit rate : 2 303 kb/s
Maximum bit rate : 3 500 kb/s
Width : 1 280 pixels
Height : 720 pixels
Display aspect ratio : 16:9
Frame rate mode : Constant
Frame rate : 25.000 FPS
Color space : YUV
Chroma subsampling : 4:2:0
Bit depth : 8 bits
Scan type : Progressive
Bits/(Pixel*Frame) : 0.100
Stream size : 474 MiB (88%)
Default : Yes
Forced : No

Audio
ID : 1
Format : AAC
Format/Info : Advanced Audio Codec
Format profile : LC
Codec ID : A_AAC-2
Duration : 28 min 45 s
Bit rate : 317 kb/s
Channel(s) : 2 channels
Channel positions : Front: L R
Sampling rate : 48.0 kHz
Frame rate : 46.875 FPS (1024 SPF)
Compression mode : Lossy
Delay relative to video : -40 ms
Stream size : 65.3 MiB (12%)
Language : English
Default : Yes
Forced : No

Text
ID : 3
Format : UTF-8
Codec ID : S_TEXT/UTF8
Codec ID/Info : UTF-8 Plain Text
Duration : 28 min 11 s
Bit rate : 279 b/s
Count of elements : 617
Stream size : 57.8 KiB (0%)
Default : No
Forced : No





The Apprentice: You're Fired! S13E07


The Apprentice: You're Fired! S13E07


The Apprentice: You're Fired! S13E07


The Apprentice: You're Fired! S13E07


The Apprentice: You're Fired! S13E07

All episodes