Danish National Symphony Orchestra Wind Quintet, Ralf Gothóni - French Music for Wind Quintet (2005)

Danish National Symphony Orchestra Wind Quintet, Ralf Gothóni - French Music for Wind Quintet (2005)

Danish National Symphony Orchestra Wind Quintet, Ralf Gothóni - French Music for Wind Quintet: Poulenc, Ibert, Milhaud, Françaix (2005)
EAC | FLAC (image+.cue, log) | Covers Included | 58:53 | 258 MB
Genre: Classical | Label: Naxos | Catalog: 8.557356

The wind quintet made up of the principal players of the Danish National Symphony are fairly well-known from their earlier recordings. And Ralf Gothóni, who joins them for Poulenc's Sextet for Piano and Winds, is a strikingly sensitive pianist, particularly in chamber settings. The program itself is very strong; it comprises basically the core of 20th-century French wind quintet literature: the Poulenc Sextet, Ibert's 'Trois Pièces brèves,' Françaix's First Wind Quintet, and Milhaud's 'Le Cheminée du roi René.' All of these are marvelous pieces, although I must say that the Milhaud, except for its closing 'Chasse à Valabre' and 'Madrigal - Nocturne,' has always seemed bit boring for me; this performance does nothing to change that impression. But that's not the fault of the players. Otherwise, though, this CD has much to recommend it, both musically and in the performances.

Danish National Symphony Orchestra Wind Quintet, Ralf Gothóni - French Music for Wind Quintet (2005)

Track List:

Francis Poulenc (1899-1963)
[1]-[3] Sextet for Piano and Wind Quintet

Jacques Ibert (1890-1962)
[4]-[6] Trois pièces brèves

Darius Milhaud (1892-1974)
[7]-[13] La Cheminée du roi René, Op.205

Jean Françaix (1912-1997)
[14]-[17] Wind Quintet No.1

Performers:
Danish National Symphony Orchestra Wind Quintet
Anna Dina Schick, flute
Max Artved, oboe
Søren Elbo, clarinet
Henning Due Hansen, french horn
Jens Tofte-Hansen, bassoon

Ralf Gothóni, piano

Exact Audio Copy V1.0 beta 3 from 29. August 2011

EAC extraction logfile from 23. November 2014, 20:43

Danish National Symphony Orchestra Wind Quintet & Ralph Gothoni / French Music for Wind Quintet

Used drive : HL-DT-STDVDRAM GU70N Adapter: 0 ID: 0

Read mode : Secure
Utilize accurate stream : Yes
Defeat audio cache : Yes
Make use of C2 pointers : No

Read offset correction : 48
Overread into Lead-In and Lead-Out : No
Fill up missing offset samples with silence : Yes
Delete leading and trailing silent blocks : No
Null samples used in CRC calculations : Yes
Used interface : Native Win32 interface for Win NT & 2000

Used output format : User Defined Encoder
Selected bitrate : 128 kBit/s
Quality : High
Add ID3 tag : No
Command line compressor : C:\Program Files (x86)\Exact Audio Copy\Flac\flac.exe
Additional command line options : -V -8 -T "Date=%year%" -T "Genre=%genre%" %source%


TOC of the extracted CD

Track | Start | Length | Start sector | End sector
––––––––––––––––––––––––––––-
1 | 0:00.00 | 8:08.57 | 0 | 36656
2 | 8:08.57 | 4:48.55 | 36657 | 58311
3 | 12:57.37 | 5:45.08 | 58312 | 84194
4 | 18:42.45 | 2:21.52 | 84195 | 94821
5 | 21:04.22 | 1:37.50 | 94822 | 102146
6 | 22:41.72 | 2:57.38 | 102147 | 115459
7 | 25:39.35 | 1:59.55 | 115460 | 124439
8 | 27:39.15 | 1:49.17 | 124440 | 132631
9 | 29:28.32 | 1:11.28 | 132632 | 137984
10 | 30:39.60 | 2:34.10 | 137985 | 149544
11 | 33:13.70 | 0:53.50 | 149545 | 153569
12 | 34:07.45 | 1:40.02 | 153570 | 161071
13 | 35:47.47 | 2:42.60 | 161072 | 173281
14 | 38:30.32 | 4:20.33 | 173282 | 192814
15 | 42:50.65 | 4:35.70 | 192815 | 213509
16 | 47:26.60 | 7:05.17 | 213510 | 245401
17 | 54:32.02 | 4:18.73 | 245402 | 264824


Range status and errors

Selected range

Filename C:\temp\Naxos_8.557356 - French Music for Wind Quintet\French Music for Wind Quintet.wav

Peak level 100.0 %
Extraction speed 5.1 X
Range quality 100.0 %
Test CRC 33A196AA
Copy CRC 33A196AA
Copy OK

No errors occurred


AccurateRip summary

Track 1 accurately ripped (confidence 3) [EC3DC5D6] (AR v2)
Track 2 accurately ripped (confidence 3) [053B7090] (AR v2)
Track 3 accurately ripped (confidence 3) [379E427E] (AR v2)
Track 4 accurately ripped (confidence 3) [64F5085D] (AR v2)
Track 5 accurately ripped (confidence 3) [7B6360E6] (AR v2)
Track 6 accurately ripped (confidence 3) [954D9D9F] (AR v2)
Track 7 accurately ripped (confidence 3) [3FA1D788] (AR v2)
Track 8 accurately ripped (confidence 3) [BD629B42] (AR v2)
Track 9 accurately ripped (confidence 3) [2E720EB2] (AR v2)
Track 10 accurately ripped (confidence 3) [16B6B627] (AR v2)
Track 11 accurately ripped (confidence 3) [EBF1E79F] (AR v2)
Track 12 accurately ripped (confidence 3) [BD0E7826] (AR v2)
Track 13 accurately ripped (confidence 3) [EEA4DFD2] (AR v2)
Track 14 accurately ripped (confidence 3) [F991E02B] (AR v2)
Track 15 accurately ripped (confidence 3) [478738F2] (AR v2)
Track 16 accurately ripped (confidence 3) [EE4AC281] (AR v2)
Track 17 accurately ripped (confidence 3) [E7789796] (AR v2)

All tracks accurately ripped

End of status report

==== Log checksum E7E03D3D51B9C25E2FE2A094A007AA8D153F98929C5C9C011B3C76BE6C4601B3 ====

[CUETools log; Date: 06.01.2018 21:35:47; Version: 2.1.5]
[CTDB TOCID: gc56Lx24KJ9TTupvHBjzXhftCNM-] found.
Track | CTDB Status
1 | (4/4) Accurately ripped
2 | (4/4) Accurately ripped
3 | (4/4) Accurately ripped
4 | (4/4) Accurately ripped
5 | (4/4) Accurately ripped
6 | (4/4) Accurately ripped
7 | (4/4) Accurately ripped
8 | (4/4) Accurately ripped
9 | (4/4) Accurately ripped
10 | (4/4) Accurately ripped
11 | (4/4) Accurately ripped
12 | (4/4) Accurately ripped
13 | (4/4) Accurately ripped
14 | (4/4) Accurately ripped
15 | (4/4) Accurately ripped
16 | (4/4) Accurately ripped
17 | (4/4) Accurately ripped
[AccurateRip ID: 00253ddf-01bf2519-f50dcb11] found.
Track [ CRC | V2 ] Status
01 [26df43ce|ec3dc5d6] (04+04/10) Accurately ripped
02 [87bcfff6|053b7090] (04+04/10) Accurately ripped
03 [74dead89|379e427e] (04+04/10) Accurately ripped
04 [b8d5d88c|64f5085d] (04+04/10) Accurately ripped
05 [7df1f1e2|7b6360e6] (04+04/10) Accurately ripped
06 [09744cad|954d9d9f] (04+04/10) Accurately ripped
07 [c44f2e56|3fa1d788] (04+04/10) Accurately ripped
08 [5ae6170b|bd629b42] (04+04/10) Accurately ripped
09 [632d64b6|2e720eb2] (04+04/10) Accurately ripped
10 [481feb24|16b6b627] (04+04/10) Accurately ripped
11 [0c48585a|ebf1e79f] (04+04/10) Accurately ripped
12 [0c208344|bd0e7826] (04+04/10) Accurately ripped
13 [4b0a1a42|eea4dfd2] (04+04/10) Accurately ripped
14 [45e12afc|f991e02b] (04+04/11) Accurately ripped
15 [f4106289|478738f2] (04+04/11) Accurately ripped
16 [0105dde5|ee4ac281] (03+04/10) Accurately ripped
17 [15f2b939|e7789796] (04+04/11) Accurately ripped
Offsetted by 12:
01 [a4b6f7fa] (00/10) No match (V2 was not tested)
02 [c2d2ca2c] (00/10) No match (V2 was not tested)
03 [aae2141c] (00/10) No match (V2 was not tested)
04 [a1e0876d] (00/10) No match (V2 was not tested)
05 [506d73a6] (00/10) No match (V2 was not tested)
06 [50da19b4] (00/10) No match (V2 was not tested)
07 [27535831] (00/10) No match (V2 was not tested)
08 [7c79a6ff] (00/10) No match (V2 was not tested)
09 [f8566f07] (00/10) No match (V2 was not tested)
10 [0a58ef90] (00/10) No match (V2 was not tested)
11 [63152cc5] (00/10) No match (V2 was not tested)
12 [881743d4] (00/10) No match (V2 was not tested)
13 [3fca779b] (00/10) No match (V2 was not tested)
14 [f8e8f761] (00/11) No match (V2 was not tested)
15 [f7d46787] (00/11) No match (V2 was not tested)
16 [51c1521f] (00/10) No match (V2 was not tested)
17 [511f4b0f] (00/11) No match (V2 was not tested)

Track Peak [ CRC32 ] [W/O NULL] [ LOG ]
– 99,9 [33A196AA] [25AABE06] CRC32
01 85,5 [B546790F] [CF246AC3]
02 56,6 [C53D4835] [A2457FDC]
03 98,8 [FB146652] [5FE18CB0]
04 93,9 [D9FDFF6F] [8D48DA20]
05 34,2 [D5C88DB5] [A6739A3B]
06 82,0 [D68DD3CA] [9BD0B9B5]
07 39,9 [C5A0F282] [A7BCFFD0]
08 41,5 [38E2C059] [A64E4033]
09 99,9 [701E4481] [6D093655]
10 71,5 [376359E4] [5B675AD0]
11 50,4 [BE2EF238] [1079B705]
12 72,8 [D205927D] [46B0711C]
13 60,1 [A1CC2648] [7501F728]
14 92,7 [378F88E5] [DBC0E9D4]
15 98,6 [22DB208E] [1448B345]
16 72,0 [83C0C976] [8697D8C5]
17 94,0 [A6E3B319] [DE57AC6A]

Thanks to the Original ripper A-Z!

Download: