Alice Coltrane and Carlos Santana - Illuminations (1974) [Reissue 2017] PS3 ISO + Hi-Res FLAC

Alice Coltrane and Carlos Santana - Illuminations (1974) [Reissue 2017] PS3 ISO + Hi-Res FLAC

Turiya Alice Coltrane & Devadip Carlos Santana (1974) [Reissue 2017]
PS3 Rip | SACD ISO | DST64 2.0 & 5.1 > 1-bit/2.8224 MHz | 35:47 minutes | Scans included | 1,66 GB
or FLAC 2.0 Stereo (converted with foobar2000 to tracks) 24bit/88,2 kHz | Full Scans incl. | 756 MB
Features Stereo and Multichannel surround sound | Label: Vocalion # CDSML 8530

Illuminations is a 1974 collaboration between Alice Coltrane and Carlos Santana. For his third duet album, Carlos Santana performed the works of John Coltrane, paired with Coltrane's widow, harpist/keyboardist Alice Coltrane, on this instrumental album. Side One includes several contemplative, string-filled numbers, while Side Two presents Santana's re-creation of John Coltrane's late free jazz style in "Angel of Sunlight." Columbia Records could not have been pleased at Santana's determined drift into esoteric jazz: Illuminations was the first of the nine Santana-related albums so far released in the U.S. not to go gold.

Jazz musicians Jules Broussard, Jack DeJohnette and Dave Holland also contributed to the record, on saxophone, flute, drums and bass. Alice Coltrane delivers some harp glissando, while the string orchestra adds a serene mood to the music. Carlos Santana (whose Indian name "Devadip" appears on the sleeve) plays electric guitar in his own fashion, utilizing feedback, long notes and simple melodies, letting much space to the other instruments. The album is conceived as an instrumental jazz album, with lengthy solos on guitar, saxophone and keyboards. The introduction to "Angel of Air", with its violins, has been sampled by the Cinematic Orchestra. It is his first of three solo albums (the others being Oneness and The Swing of Delight) to be released under his temporary Sanskrit name Devadip Carlos Santana, given to him by Sri Chinmoy.

Alice Coltrane and Carlos Santana’s collaboration Illuminations positively glows on this SACD reissue. Engineer Michael Dutton’s peerless remastering of the quad mix is simply breathtaking. The extra depth found in the swirling string sections, Coltrane’s piano and harp and Santana’s stratospheric, sustained notes imbues this album with a whole new level of glittering detail. The racing turbulence of Angel Of Sunlight, in which a full band, propelled by Dave Holland and Jack DeJohnette’s rhythm section, appeared somewhat earthbound and compressed in the original mix. Here, however the spatial placement of instruments reveals previously obscured elements of the score and interplay that’s nothing short of a revelation as the entire ensemble take flight on their way to spiritual bliss.

Tracklist:

01. Guru Sri Chinmoy Aphorism
02. Angel of Air Angel of Water
03. Bliss The Eternal Now
04. Angel of Sunlight
05. Illuminations

Remastered from the Original Master tapes by Michael J. Dutton.

foobar2000 1.3.17 / Dynamic Range Meter 1.1.1

––––––––––––––––––––––––––––––––––––––––
Analyzed: Coltrane Santana / Illuminations
––––––––––––––––––––––––––––––––––––––––

DR Peak RMS Duration Track
––––––––––––––––––––––––––––––––––––––––
DR7 -20.21 dB -37.90 dB 1:11 01-Guru Sri Chinmoy Aphorism
DR8 -6.59 dB -25.25 dB 9:55 02-Angel of Air Angel of Water
DR7 -7.08 dB -25.86 dB 5:35 03-Bliss The Eternal Now
DR8 -6.01 dB -24.00 dB 14:40 04-Angel of Sunlight
DR8 -6.01 dB -25.60 dB 4:25 05-Illuminations
––––––––––––––––––––––––––––––––––––––––

Number of tracks: 5
Official DR value: DR7

Samplerate: 2822400 Hz / PCM Samplerate: 88200 Hz
Channels: 6
Bits per sample: 1
Bitrate: 16934 kbps
Codec: DST64
================================================================================

––––––––––––––––––––––––––––––––––––––––
Analyzed: Coltrane Santana / Illuminations
––––––––––––––––––––––––––––––––––––––––

DR Peak RMS Duration Track
––––––––––––––––––––––––––––––––––––––––
DR8 -17.42 dB -29.67 dB 1:11 01-Guru Sri Chinmoy Aphorism
DR10 -6.54 dB -20.41 dB 9:55 02-Angel of Air Angel of Water
DR9 -6.31 dB -19.94 dB 5:35 03-Bliss The Eternal Now
DR12 -6.46 dB -21.08 dB 14:40 04-Angel of Sunlight
DR12 -7.63 dB -25.64 dB 4:25 05-Illuminations
––––––––––––––––––––––––––––––––––––––––

Number of tracks: 5
Official DR value: DR10

Samplerate: 2822400 Hz / PCM Samplerate: 88200 Hz
Channels: 2
Bits per sample: 1
Bitrate: 5645 kbps
Codec: DST64


Thanks to KingCrim!
Uncompressed SACD ISO size > 1,55 GB
>