The Royal Symphonic Orchestra (Featuring Mike Oldfield) - The Orchestral Tubular Bells (1975) [Reissue 2003]

The Royal Symphonic Orchestra (Featuring Mike Oldfield) - The Orchestral Tubular Bells (1975) [Reissue 2003]

The Royal Symphonic Orchestra (Featuring Mike Oldfield) - The Orchestral Tubular Bells (1975) [Reissue 2003]
EAC Rip | WavPack (image+.cue+log) - 231 MB | MP3 CBR 320 kbps (LAME 3.93) - 137 MB | Covers (16 MB) included
Genre: Symphonic Progressive Rock | RAR 3% Rec. | Label: EMI (07243 5 93175 2 6)

It was inevitable, after the mega-success of Tubular Bells in its original form, that someone would orchestrate the piece - the many and varied instrumental voices of the original virtually begged for this treatment, especially as the original album appeared at the height of the progressive rock boom, when even self-contained rock bands such as Emerson, Lake & Palmer were starting to turn toward orchestral accompaniment in their quest for richer sounds. In this case, it was composer Mike Oldfield himself who oversaw and co-produced the work with orchestrator and collaborator David Bedford, a longtime friend and colleague. The orchestration lives up to its promise, Bedford bringing to bear the diverse voices of strings, horns, brass, and winds in suitably rich fashion, even toning down many of Oldfield's original flourishes in the version for small electric orchestra (which is what the original was, in essence): An electric guitar part transcribed for reeds, a bass part given the violas, brass covering a guitar solo, or tubas replacing bass in a key section, it's all done smoothly and professionally by the Royal Philharmonic Orchestra. The only problem with the album is that it all sounds a little too conventional as orchestral music and betrays some of Oldfield's original source material and inspirations (or, perhaps, some of Bedford's influences) - so one hears in sharp relief the influence of Berlioz, Saint-Saëns, and even Jerome Moross (whose music from The Big Country - also an inspiration to Yes at an earlier date - surfaces for a few seconds at one point). The timbres are the most interesting element of this recording, which will, at times, too much resemble film music for the tastes of some listeners (this despite the fact that the original material was most familiar to many listeners in terms of its use from The Exorcist - it worked there because it sounded so unearthly, whereas here it sounds anything but unearthly; indeed, the end of "Tubular Bells, Pt. 1" is lacking in drama and joy with the absence of a narrator to introduce the array of instruments which, of course, has been altered completely for this recording). And Part 2 of the piece, which was always more problematic, comes off here as engaging from moment to moment but a bit shapeless overall, despite some superb classical-style acoustic and electric guitar from Oldfield near the end. It also would have been nice to have had some annotation by Oldfield or Bedford some decades after the fact, recalling this project.

Tracklist:
01. The Orchestral Tubular Bells (Part 1)
02. The Orchestral Tubular Bells (Part 2)

Total time: 50:59

Exact Audio Copy V1.0 beta 3 from 29. August 2011

EAC extraction logfile from 30. January 2014, 0:57

The Royal Symphonic Orchestra / Mike Oldfield: The Orchestral Tubular Bells

Used drive : TSSTcorpCDDVDW SH-S223F Adapter: 0 ID: 1

Read mode : Secure
Utilize accurate stream : Yes
Defeat audio cache : Yes
Make use of C2 pointers : No

Read offset correction : 6
Overread into Lead-In and Lead-Out : No
Fill up missing offset samples with silence : Yes
Delete leading and trailing silent blocks : No
Null samples used in CRC calculations : Yes
Used interface : Native Win32 interface for Win NT & 2000

Used output format : User Defined Encoder
Selected bitrate : 1024 kBit/s
Quality : High
Add ID3 tag : No
Command line compressor : C:\Program Files\Exact Audio Copy\wavpack.exe
Additional command line options : -hm %source% %dest%


TOC of the extracted CD

Track | Start | Length | Start sector | End sector
––––––––––––––––––––––––––––-
1 | 0:00.00 | 26:32.07 | 0 | 119406
2 | 26:32.07 | 24:27.03 | 119407 | 229434


Range status and errors

Selected range

Filename F:\iso\The Royal Symphonic Orchestra - Mike Oldfield- The Orchestral Tubular Bells\The Royal Symphonic Orchestra - Mike Oldfield- The Orchestral Tubular Bells.wav

Peak level 88.8 %
Extraction speed 5.4 X
Range quality 100.0 %
Test CRC 5A8CDCDD
Copy CRC 5A8CDCDD
Copy OK

No errors occurred


AccurateRip summary

Track 1 accurately ripped (confidence 25) [EC688ED5] (AR v2)
Track 2 accurately ripped (confidence 23) [3CF54FB0] (AR v2)

All tracks accurately ripped

End of status report

==== Log checksum AAFA0FCF2E0CAE7DDD4561A7203FF5BD09558403CBE205ADDE4754ABA348F287 ====

[CUETools log; Date: 10.02.2018 16:48:51; Version: 2.1.4]
HDCD: peak extend: yes, transient filter: none, gain: none
[CTDB TOCID: GEXU4iDuXLbi.ylrn07wfwIqaHo-] found.
Track | CTDB Status
1 | (118/122) Accurately ripped
2 | (114/122) Accurately ripped
[AccurateRip ID: 000552aa-000e2590-150bf302] found.
Track [ CRC | V2 ] Status
01 [b8cb38b6|ec688ed5] (31+53/84) Accurately ripped
02 [74f8327b|3cf54fb0] (29+49/78) Accurately ripped
Offsetted by -34:
01 [c04eeafe] (00/84) No match (V2 was not tested)
02 [1e87a259] (00/78) No match (V2 was not tested)

Track Peak [ CRC32 ] [W/O NULL] [ LOG ]
– 88,8 [5A8CDCDD] [9A7BD4DD] CRC32
01 87,9 [215011FA] [8E95588B]
02 88,8 [03DC3E13] [E9DB3B00]

Thanks to shatterhand