Explorers (1985)

1080p (FullHD) / WEB-DL IMDb
Explorers (1985)

Explorers (1985)
WEB-DL | MKV | 1920x1080 | English | H265 @ 2822 kbps | AC-3 @ 256 kbps | 1 h 49 min | 2.35 GiB
Genre: Adventure, Fantasy, Science Fiction, Romance, Family

The visionary dreams of three curious and adventuresome young boys become an exciting reality in Explorers, the action-fantasy from director Joe Dante, who combines keen humor, warmth and fantasy with unexpected twists. In their makeshift laboratory, the boys use an amazing discovery and their ingenuity to build their own spaceship and launch themselves on a fantastic interplanetary journey.

dda9d86aea054f5bb60353725abc8b67.mkv (2.4 GB)



General
Complete name : ./dda9d86aea054f5bb60353725abc8b67.mkv
Format : Matroska
Format version : Version 2
File size : 2.35 GiB
Duration : 1 h 49 min
Overall bit rate : 3 081 kb/s
Encoded date : UTC 2018-03-22 19:48:52
Writing application : DVDFab 10.0.8.7
Writing library : libebml v1.3.4 + libmatroska v1.4.5

Video
ID : 1
Format : HEVC
Format/Info : High Efficiency Video Coding
Format profile : Main@L4@Main
Codec ID : V_MPEGH/ISO/HEVC
Duration : 1 h 49 min
Bit rate : 2 823 kb/s
Width : 1 920 pixels
Height : 1 080 pixels
Display aspect ratio : 16:9
Frame rate mode : Constant
Frame rate : 23.976 (24000/1001) FPS
Color space : YUV
Chroma subsampling : 4:2:0
Bit depth : 8 bits
Bits/(Pixel*Frame) : 0.057
Stream size : 2.16 GiB (92%)
Default : Yes
Forced : No
Color range : Limited
Color primaries : BT.709
Transfer characteristics : BT.709
Matrix coefficients : BT.709

Audio
ID : 2
Format : AC-3
Format/Info : Audio Coding 3
Format settings, Endianness : Big
Codec ID : A_AC3
Duration : 1 h 49 min
Bit rate mode : Constant
Bit rate : 256 kb/s
Channel(s) : 2 channels
Channel positions : Front: L R
Sampling rate : 48.0 kHz
Frame rate : 31.250 FPS (1536 SPF)
Bit depth : 16 bits
Compression mode : Lossy
Stream size : 200 MiB (8%)
Language : English
Service kind : Complete Main
Default : Yes
Forced : No





Explorers (1985)


Explorers (1985)


Explorers (1985)


Explorers (1985)


Explorers (1985)