Rick Springfield - Working Class Dog (1980/2014)

Rick Springfield - Working Class Dog (1980/2014)

Rick Springfield - Working Class Dog (1980/2014)
EAC Rip | FLAC (tracks+.cue, log) ~ 287.57 Mb + 46.76 Mb (Scans) | 42:47
Pop Rock | Country: USA | Label: RCA Records / Sony Music Entertainment - 88843045222CD2

Forget that Rick Springfield was a soap star for a moment and listen to his music, because he made some of the finest guitar-driven mainstream pop/rock of the early '80s. Working Class Dog is his finest moment, filled with expertly crafted pop songs, highlighted by the massive hit "Jessie's Girl." ~ AllMusic Review by Stephen Thomas Erlewine

Track List:
01. Love Is Alright Tonite (03:28)
02. Jessie's Girl (03:14)
03. Hole In My Heart (03:12)
04. Carry Me Away (03:02)
05. I've Done Everything For You (03:19)
06. The Light Of Love (02:45)
07. Everybody's Girl (03:00)
08. Daddy's Pearl (02:38)
09. Red Hot & Blue Love (03:00)
10. Inside Silvia (04:49)
11. Easy To Cry (Bonus Track) (03:33)
12. Taxi Dancing (Original Version) (Bonus Track) (03:35)
13. Jessie's Girl (Demo Version) (Bonus Track) (03:11)

Rick Springfield - Working Class Dog (1980/2014)

Exact Audio Copy V1.0 beta 3 from 29. August 2011

EAC extraction logfile from 14. February 2018, 23:35

Rick Springfield / Working Class Dog (Original Album Classics Series)

Used drive : ASUS BW-16D1HT Adapter: 1 ID: 0

Read mode : Secure
Utilize accurate stream : Yes
Defeat audio cache : Yes
Make use of C2 pointers : No

Read offset correction : 6
Overread into Lead-In and Lead-Out : No
Fill up missing offset samples with silence : Yes
Delete leading and trailing silent blocks : No
Null samples used in CRC calculations : Yes
Used interface : Native Win32 interface for Win NT & 2000
Gap handling : Appended to previous track

Used output format : User Defined Encoder
Selected bitrate : 128 kBit/s
Quality : High
Add ID3 tag : No
Command line compressor : C:\Program Files (x86)\Exact Audio Copy\Flac\flac.exe
Additional command line options : -V -8 -T "Genre=%genre%" -T "Artist=%artist%" -T "Title=%title%" -T "Album=%albumtitle%" -T "Date=%year%" -T "Tracknumber=%tracknr%" -T "Comment=%comment%" %source%

TOC of the extracted CD

Track | Start | Length | Start sector | End sector
––––––––––––––––––––––––––––-
1 | 0:00.00 | 3:27.65 | 0 | 15589
2 | 3:27.65 | 3:14.09 | 15590 | 30148
3 | 6:41.74 | 3:12.30 | 30149 | 44578
4 | 9:54.29 | 3:01.54 | 44579 | 58207
5 | 12:56.08 | 3:18.48 | 58208 | 73105
6 | 16:14.56 | 2:45.10 | 73106 | 85490
7 | 18:59.66 | 3:00.32 | 85491 | 99022
8 | 22:00.23 | 2:37.43 | 99023 | 110840
9 | 24:37.66 | 2:59.43 | 110841 | 124308
10 | 27:37.34 | 4:49.28 | 124309 | 146011
11 | 32:26.62 | 3:33.20 | 146012 | 162006
12 | 36:00.07 | 3:35.36 | 162007 | 178167
13 | 39:35.43 | 3:11.33 | 178168 | 192525

Track 1

Filename D:\Rick Springfield - Original Album Classics (RCA, 88843045222) (2014)\CD2 - Working Class Dog (88843045222CD2) (1980)\01 - Love Is Alright Tonite.wav

Pre-gap length 0:00:02.00

Peak level 100.0 %
Extraction speed 4.3 X
Track quality 100.0 %
Test CRC E98C8052
Copy CRC E98C8052
Accurately ripped (confidence 45) [26185096] (AR v2)
Copy OK

Track 2

Filename D:\Rick Springfield - Original Album Classics (RCA, 88843045222) (2014)\CD2 - Working Class Dog (88843045222CD2) (1980)\02 - Jessie's Girl.wav

Peak level 94.4 %
Extraction speed 4.6 X
Track quality 100.0 %
Test CRC 53CD6FF8
Copy CRC 53CD6FF8
Accurately ripped (confidence 45) [AB916E36] (AR v2)
Copy OK

Track 3

Filename D:\Rick Springfield - Original Album Classics (RCA, 88843045222) (2014)\CD2 - Working Class Dog (88843045222CD2) (1980)\03 - Hole In My Heart.wav

Peak level 100.0 %
Extraction speed 5.0 X
Track quality 100.0 %
Test CRC A2F75C04
Copy CRC A2F75C04
Accurately ripped (confidence 44) [EA74E898] (AR v2)
Copy OK

Track 4

Filename D:\Rick Springfield - Original Album Classics (RCA, 88843045222) (2014)\CD2 - Working Class Dog (88843045222CD2) (1980)\04 - Carry Me Away.wav

Peak level 100.0 %
Extraction speed 5.3 X
Track quality 100.0 %
Test CRC B7EEAF76
Copy CRC B7EEAF76
Accurately ripped (confidence 44) [028E12CE] (AR v2)
Copy OK

Track 5

Filename D:\Rick Springfield - Original Album Classics (RCA, 88843045222) (2014)\CD2 - Working Class Dog (88843045222CD2) (1980)\05 - I've Done Everything For You.wav

Peak level 100.0 %
Extraction speed 5.6 X
Track quality 100.0 %
Test CRC 788E4D68
Copy CRC 788E4D68
Accurately ripped (confidence 45) [5F4574F0] (AR v2)
Copy OK

Track 6

Filename D:\Rick Springfield - Original Album Classics (RCA, 88843045222) (2014)\CD2 - Working Class Dog (88843045222CD2) (1980)\06 - The Light Of Love.wav

Pre-gap length 0:00:01.44

Peak level 100.0 %
Extraction speed 5.8 X
Track quality 100.0 %
Test CRC A5351476
Copy CRC A5351476
Accurately ripped (confidence 44) [3974A87E] (AR v2)
Copy OK

Track 7

Filename D:\Rick Springfield - Original Album Classics (RCA, 88843045222) (2014)\CD2 - Working Class Dog (88843045222CD2) (1980)\07 - Everybody's Girl.wav

Peak level 100.0 %
Extraction speed 6.0 X
Track quality 100.0 %
Test CRC 1DD8A9EC
Copy CRC 1DD8A9EC
Accurately ripped (confidence 44) [189992B7] (AR v2)
Copy OK

Track 8

Filename D:\Rick Springfield - Original Album Classics (RCA, 88843045222) (2014)\CD2 - Working Class Dog (88843045222CD2) (1980)\08 - Daddy's Pearl.wav

Pre-gap length 0:00:01.17

Peak level 100.0 %
Extraction speed 6.1 X
Track quality 100.0 %
Test CRC A361D5CB
Copy CRC A361D5CB
Accurately ripped (confidence 44) [AE20252D] (AR v2)
Copy OK

Track 9

Filename D:\Rick Springfield - Original Album Classics (RCA, 88843045222) (2014)\CD2 - Working Class Dog (88843045222CD2) (1980)\09 - Red Hot & Blue Love.wav

Peak level 100.0 %
Extraction speed 6.5 X
Track quality 100.0 %
Test CRC DE1F8931
Copy CRC DE1F8931
Accurately ripped (confidence 44) [CD29D4E8] (AR v2)
Copy OK

Track 10

Filename D:\Rick Springfield - Original Album Classics (RCA, 88843045222) (2014)\CD2 - Working Class Dog (88843045222CD2) (1980)\10 - Inside Silvia.wav

Peak level 100.0 %
Extraction speed 7.2 X
Track quality 100.0 %
Test CRC 8F6DC350
Copy CRC 8F6DC350
Accurately ripped (confidence 44) [9EFD0BDC] (AR v2)
Copy OK

Track 11

Filename D:\Rick Springfield - Original Album Classics (RCA, 88843045222) (2014)\CD2 - Working Class Dog (88843045222CD2) (1980)\11 - Easy To Cry.wav

Pre-gap length 0:00:04.56

Peak level 100.0 %
Extraction speed 7.2 X
Track quality 100.0 %
Test CRC 45525F92
Copy CRC 45525F92
Accurately ripped (confidence 44) [14064CE6] (AR v2)
Copy OK

Track 12

Filename D:\Rick Springfield - Original Album Classics (RCA, 88843045222) (2014)\CD2 - Working Class Dog (88843045222CD2) (1980)\12 - Taxi Dancing (Original Version).wav

Pre-gap length 0:00:02.57

Peak level 100.0 %
Extraction speed 6.5 X
Track quality 99.9 %
Test CRC F4547695
Copy CRC F4547695
Accurately ripped (confidence 44) [A355BFAD] (AR v2)
Copy OK

Track 13

Filename D:\Rick Springfield - Original Album Classics (RCA, 88843045222) (2014)\CD2 - Working Class Dog (88843045222CD2) (1980)\13 - Jessie's Girl (Demo Version).wav

Pre-gap length 0:00:02.57

Peak level 69.8 %
Extraction speed 7.6 X
Track quality 100.0 %
Test CRC F09CDA43
Copy CRC F09CDA43
Accurately ripped (confidence 44) [78644C2C] (AR v2)
Copy OK

All tracks accurately ripped

No errors occurred

End of status report

==== Log checksum 182B4710B3B09FE4C4B0D7A5B921F771141A1F6FC13A99B55F2A94546BE27CF6 ====

All thanks go to the D-Omen

More Music in My Blog
Follow My RSS Channel