Bruce Springsteen - The Ties That Bind: The River Collection (2015)

Bruce Springsteen - The Ties That Bind: The River Collection (2015)

Bruce Springsteen - The Ties That Bind: The River Collection (2015)
XLD Rip | FLAC (tracks+log+.cue) | 03:18:48 | 1,25 Gb
Classic Rock, Folk Rock, Heartland Rock | Label: Columbia Records

Bruce Springsteen’s fifth album gushes forth with the fury of a burst dam, delivering torrents of despair, inspiration, heartbreak, and joy. The Ties That Bind: The River Collection expands the original 20-song double album to a 4xCD set.

The River doesn’t flow—it floods. Bruce Springsteen’s fifth album gushes forth with the fury of a burst dam, delivering torrents of despair, inspiration, heartbreak, and joy. Coming after the deliberate twin masterpieces of Born to Run and Darkness on the Edge of Town, records epic in scope but precise in execution, The River not only appears to be a mess but embodies the classic definition of a double album: it seems to be a clearinghouse for every song Bruce Springsteen had at the ready in 1980. The Ties That Bind: The River Collection shows just how wrong that assumption is. Expanding the original 20-song double album to a 4xCD set supplemented with video, it laughs at the notion that the original album was much too much by underscoring exactly how Springsteen intended the album to overwhelm.

Initially, Springsteen planned to follow 1978’s Darkness on the Edge of Town with an album called The Ties That Bind but he withdrew the record in the fall of 1979, believing that it wasn’t "big enough." This claim came from the stage during a 2009 performance of The River at Madison Square Garden, with Bruce going on to say, "I wanted to capture the themes that I’d been writing about on Darkness. I wanted to keep those characters with me and at the same time added the music that made our live shows so much fun and enjoyable for our audience." On this box, the scrapped The Ties That Bind gets an official airing as the third disc on the set—here it’s dubbed The River [Single Album]—and it does indeed play like a truncated, miniature version of The River, containing in its 10 tracks seven of the double-album’s songs, along with two alternate versions of tunes that wound up on the released record. What’s striking is what’s absent: shorn of its party songs, the record feels gloomy and haunted—even "You Can Look (But You Better Not Touch)" in a lonesome Sun rockabilly incarnation feels like a transmission from the lonely black of night. It reiterates many of the themes of Darkness, only without aggression, fury, or precision, the very things that give that record a lift that fights against its undercurrents of hopelessness.

Surely recognizing this deficit, Springsteen spent roughly another year in the studio, reviving old songs and writing new ones, arriving at full-blown, completed recordings of most of these tunes, then picking and choosing from his surplus to create the final album. The result was enough material for another double album, presented here as The Ties That Bind, a collection that runs two songs longer the 1980 double-LP but winds up six minutes shorter. This is an absurd amount of shelved material—and, even with this abundance, there are a handful of bootlegged cuts that didn’t make the grade. There’s a lot of unheard music here, even if some tracks are colored with new Bruce vocals, a slightly sour grace-note that is only notable upon close inspection.

Listening through the box, it’s hard not to be struck by Springsteen’s labor-intensive creative method. He knew the broad outline of what he wanted to achieve, so he kept tweaking his material in the studio, rearranging and recording until he found just the right emotion. If The Cutting Edge 1965–1966 proves how Bob Dylan sought to capture the lightning of a live performance, Springsteen always is seduced by the illusion of a record: sure, he’s invigorated by live performance—and the Tempe concert included here is tremendous, the E-Street Band at the peak of their power—but he sculpts his albums out of tracks that are powerful as recordings, not simply songs.

This is especially true of The River, which Bruce loaded up with the purest, hardest, and happiest rock’n’roll the E-Street Band ever cut in the studio. "She’s the One" pulsated to a beat borrowed from Bo Diddley and Darkness surged with desperate passion, but Bruce’s first four records rarely touched on the ecstatic joy that can be had from just making noise. The River is full of these moments ("Sherry Darling", "Crush on You", "I’m a Rocker", "Cadillac Ranch"), and some of the weightier items trade in this same sense of exuberance—a sense of desperation cuts against the grain of the sunny hook on "Hungry Heart", and "Two Hearts" spins headfirst into unfettered romanticism. But this music is so simple, so visceral, that it’s often been tagged as throwaway, the detritus surrounding the haunting "The River", "The Price You Pay", and "Stolen Car".

Thing is, these throwaways give The River its cinematic scope. Some of the newer additions were cut from a familiar forlorn cloth ("Independence Day", the closing pair of "Drive All Night" and "Wreck on the Highway") while "Point Blank" and "Jackson Cage" split the difference between the celebration and sorrow. But the biggest distinction between The River and the original Ties That Bind is this full-on bash, funny and furious and entirely sincere in its worship of the sounds rocking frat houses and AM radio in a '60s that didn’t belong to the Beatles. It’s the Springsteen album that can easily slip onto any show on Little Steven’s Underground Garage, and this party winds up providing an ideal counterpoint to the sweeter, sadder moments on The River.

Take the second side, which opens with "Hungry Heart"—Bruce’s first genuine hit single, reaching number five on a combination of its hook and Springsteen’s general momentum—then dwells upon the cinematic escape "Out in the Street" and serves up two breakneck rockers before settling into the dreaminess of "I Wanna Marry You" and the stark "The River", the latter two hitting harder due to the companions. Each side is structured similarly, with the last song tipping slightly toward melancholy, the cumulative effect suggesting there’s no separating pleasure from the pain. It all comes at once and, depending on mood, The River either seems like the happiest or saddest of Bruce’s records: in its mess lies a mirror that reflects the listener’s state of mind.

The Ties That Bind illustrates this sprawl was no accident. Within these 22 rejects—some of them sneaking out as B-sides or on previous reissues, including the 1998 box Tracks and the bonus disc on 2003’s The Essential Bruce Springsteen—Springsteen explores the same terrain as he does on The River: urban romance, accidental violence, working-man’s blues, and restless nights. Like its parent, The Ties That Bind achieves a delicate balance between adult despair and adolescent freedom: he may dwell upon "Little White Lies" and "The Time That Never Was", but he also borrows a song title from Claudine Clark ("Party Lights") and tips a hat to Connie Francis’ beach classic Where the Boys Are ("Where the Bands Are"). Enough great songs didn’t make a cut that it’s possible to cobble together a killer single album from the outtakes—one that would open with the breathless "Meet Me in the City" and contain the cloistered paranoia of "The Man Who Got Away", the blank desperation of "Roulette", the open-hearted "Ricky Wants a Man of Her Own" and "From Small (Big Things One Day Come)", a heightened Chuck Berry story song Bruce turned over to Dave Edmunds. But like the completed album, what resonates is the magnitude of the sprawl itself.

As they spill out, the songs play off each other, accentuating the sorrow or celebration heard in their predecessors. Combing through these outtakes, it quickly becomes clear how Springsteen, Van Zandt, and Jon Landau constructed each track to deliver its own specific visceral thrill and then culled through their finished product to find the cuts that fit their intended design. Some of these rejects rely on that headstrong old time rock’n’roll—"Living on the Edge of the World" bops along to its syncopated swing, "Paradise by the C" is a roadhouse jam highlighting Clarence Clemons—but others play like ripostes to the E-Street Band’s peers: the live "Held Up Without a Gun" (which would later morph into the finished "You Can Look (But You Better Not Touch)") careens like Elvis Costello & the Attractions, the chiming guitars of "Take ’Em As They Come" seem like an answer to Tom Petty and the Heartbreakers, while "I Wanna Be With You" pulses to the Iron City rush of Joe Grushecky & the Houserockers.

Thirty-five years after the release of The River, it’s easy to think of Bruce Springsteen as existing on a separate plane from such contemporary kindred spirits or perhaps as somebody who only belongs to part of a self-styled lineage that runs through Woody Guthrie and Bob Dylan. By adding The Times That Bind, both the scrapped '79 LP and this new double-disc collection of outtakes, to The River, this box highlights the plain, prosaic ways he belonged to his time. On these 52 songs, Springsteen sings about gas shortages, cold beer, unemployment agencies, busted dreams, and Burt Reynolds, fleeting images of a blue collar America that unknowingly was entering its decay but these words are married to the sound of a working band that knows it has to work, aware that it has to have songs to fuel those marathon three hour shows.

Springsteen never really let these straight-up rockers be part of his records again—maybe on Born in the U.S.A., but both "Darlington County" and "Working on the Highway" end in tears—but he also never quite worked the same way again, producing such a ridiculous surplus of finished material as he set out on his quest for bigger, greater things. The River brought Bruce to those heights, giving him his first number one album and Top 10 single, but it’s hard not to think of it as not a beginning but an end, the last record where he and the E-Street Band were not the biggest band in the land but merely the best. In that light, piling on a ton of unreleased music, all in the same spirit and feel as the final album and nearly as good as what made the cut, feels like a gift. And for those who may think four CDs and three DVDs are too much, consider this: for an album that is all about contradictions, excess and mess, more of everything is most certainly a good thing.
Tracklist:
Disc 1 - The River
1. The Ties That Bind
2. Sherry Darling
3. Jackson Cage
4. Two Hearts
5. Independence Day
6. Hungry Heart
7. Out In The Street
8. Crush On You
9. You Can Look (But You Better Not Touch)
10. I Wanna Marry You
11. The River

Disc 2 - The River
1. Point Blank
2. Cadillac Ranch
3. I'm A Rocker
4. Fade Away
5. Stolen Car
6. Ramrod
7. The Price You Pay
8. Drive All NIght
9. Wreck On The Highway

Disc 3 - The River Single Album
1. The Ties That Bind
2. Cindy
3. Hungry Heart
4. Stolen Car (Vs. 1)
5. Be True
6. The River
7. You Can Look (But You Better Not Touch) (Vs. 1)
8. The Price You Pay
9. I Wanna Marry You
10. Loose End

Disc 4 - The River Outtakes
1. Meet Me In The City
2. The Man Who Got Away
3. Little White Lies
4. The Time That Never Was
5. Night Fire
6. Whitetown
7. Chain Lightning
8. Party Lights
9. Paradise By The "C"
10. Stray Bullet
11. Mr. Outside
12. Roulette
13. Restless NIghts
14. Where The Bands Are
15. Dollhouse
16. Living On The Edge Of The World
17. Take 'Em As They Come
18. Ricky Wants A Man Of Her Own
19. I Wanna Be With You
20. Mary Lou
21. Held Up Without A Gun
22. From Small Things (Big Things One Day Come)

X Lossless Decoder version 20151128 (149.0)

XLD extraction logfile from 2015-12-05 16:31:49 -0600

Bruce Springsteen / THE RIVER, Disc 1 [RM2014]

Used drive : HL-DT-ST DVDRW GA11N (revision JA18)
Media type : Pressed CD

Ripper mode : XLD Secure Ripper
Disable audio cache : OK for the drive with a cache less than 1375KiB
Make use of C2 pointers : NO
Read offset correction : 667
Max retry count : 100
Gap status : Analyzed, Appended (except HTOA)

TOC of the extracted CD
Track | Start | Length | Start sector | End sector
––––––––––––––––––––––––––––-
1 | 00:00:00 | 03:34:64 | 0 | 16113
2 | 03:34:64 | 04:03:13 | 16114 | 34351
3 | 07:38:02 | 03:03:73 | 34352 | 48149
4 | 10:42:00 | 02:46:18 | 48150 | 60617
5 | 13:28:18 | 04:50:48 | 60618 | 82415
6 | 18:18:66 | 03:19:34 | 82416 | 97374
7 | 21:38:25 | 04:17:45 | 97375 | 116694
8 | 25:55:70 | 03:11:07 | 116695 | 131026
9 | 29:07:02 | 02:37:66 | 131027 | 142867
10 | 31:44:68 | 03:30:61 | 142868 | 158678
11 | 35:15:54 | 05:01:41 | 158679 | 181294

AccurateRip Summary (DiscID: 00105215-008d7154-7409710b)
Track 01 : NG (total 72 submissions)
Track 02 : NG (total 72 submissions)
Track 03 : NG (total 72 submissions)
Track 04 : NG (total 72 submissions)
Track 05 : NG (total 71 submissions)
Track 06 : NG (total 70 submissions)
Track 07 : NG (total 72 submissions)
Track 08 : NG (total 72 submissions)
Track 09 : NG (total 72 submissions)
Track 10 : NG (total 72 submissions)
Track 11 : NG (total 71 submissions)
->0 track accurately ripped, 11 tracks not

All Tracks
Album gain : -7.39 dB
Peak : 0.992645
Statistics
Read error : 0
Jitter error (maybe fixed) : 0
Retry sector count : 0
Damaged sector count : 0

Track 01
Filename : /Users/Home/Desktop/Bruce Springsteen - 2015 - The Ties That Bind The River Collection FLAC/The River Disc 1/01 - The Ties That Bind.flac
Pre-gap length : 00:02:00

Track gain : -7.43 dB
Peak : 0.974121
CRC32 hash (test run) : BF90E00D
CRC32 hash : BF90E00D
CRC32 hash (skip zero) : 4B75376F
AccurateRip v1 signature : 1AC62892
AccurateRip v2 signature : 0D361621
->Rip may not be accurate (total 72 submissions).
Statistics
Read error : 0
Jitter error (maybe fixed) : 0
Retry sector count : 0
Damaged sector count : 0

Track 02
Filename : /Users/Home/Desktop/Bruce Springsteen - 2015 - The Ties That Bind The River Collection FLAC/The River Disc 1/02 - Sherry Darling.flac
Pre-gap length : 00:01:00

Track gain : -8.26 dB
Peak : 0.922333
CRC32 hash (test run) : 1B93B38A
CRC32 hash : 1B93B38A
CRC32 hash (skip zero) : 980F6575
AccurateRip v1 signature : D5AAE64B
AccurateRip v2 signature : FEF4D93B
->Rip may not be accurate (total 72 submissions).
Statistics
Read error : 0
Jitter error (maybe fixed) : 0
Retry sector count : 0
Damaged sector count : 0

Track 03
Filename : /Users/Home/Desktop/Bruce Springsteen - 2015 - The Ties That Bind The River Collection FLAC/The River Disc 1/03 - Jackson Cage.flac

Track gain : -7.65 dB
Peak : 0.988800
CRC32 hash (test run) : 84275F3F
CRC32 hash : 84275F3F
CRC32 hash (skip zero) : 8511E8DD
AccurateRip v1 signature : 2BD0B972
AccurateRip v2 signature : 6EE4A839
->Rip may not be accurate (total 72 submissions).
Statistics
Read error : 0
Jitter error (maybe fixed) : 0
Retry sector count : 0
Damaged sector count : 0

Track 04
Filename : /Users/Home/Desktop/Bruce Springsteen - 2015 - The Ties That Bind The River Collection FLAC/The River Disc 1/04 - Two Hearts.flac

Track gain : -8.22 dB
Peak : 0.988678
CRC32 hash (test run) : A46649E9
CRC32 hash : A46649E9
CRC32 hash (skip zero) : 31D5743D
AccurateRip v1 signature : 22B51D3C
AccurateRip v2 signature : 5A95032F
->Rip may not be accurate (total 72 submissions).
Statistics
Read error : 0
Jitter error (maybe fixed) : 0
Retry sector count : 0
Damaged sector count : 0

Track 05
Filename : /Users/Home/Desktop/Bruce Springsteen - 2015 - The Ties That Bind The River Collection FLAC/The River Disc 1/05 - Independence Day.flac
Pre-gap length : 00:04:13

Track gain : -4.90 dB
Peak : 0.992645
CRC32 hash (test run) : B3CD016E
CRC32 hash : B3CD016E
CRC32 hash (skip zero) : 78BE1C12
AccurateRip v1 signature : 5D8CBC41
AccurateRip v2 signature : 72B42D37
->Rip may not be accurate (total 71 submissions).
Statistics
Read error : 0
Jitter error (maybe fixed) : 0
Retry sector count : 0
Damaged sector count : 0

Track 06
Filename : /Users/Home/Desktop/Bruce Springsteen - 2015 - The Ties That Bind The River Collection FLAC/The River Disc 1/06 - Hungry Heart.flac
Pre-gap length : 00:04:52

Track gain : -6.87 dB
Peak : 0.989380
CRC32 hash (test run) : D72AA05B
CRC32 hash : D72AA05B
CRC32 hash (skip zero) : C7CBACBE
AccurateRip v1 signature : 41BCA6EA
AccurateRip v2 signature : AAC2AC2E
->Rip may not be accurate (total 70 submissions).
Statistics
Read error : 0
Jitter error (maybe fixed) : 0
Retry sector count : 0
Damaged sector count : 0

Track 07
Filename : /Users/Home/Desktop/Bruce Springsteen - 2015 - The Ties That Bind The River Collection FLAC/The River Disc 1/07 - Out in the Street.flac

Track gain : -7.54 dB
Peak : 0.989075
CRC32 hash (test run) : 0873E8B4
CRC32 hash : 0873E8B4
CRC32 hash (skip zero) : 3B48408F
AccurateRip v1 signature : 08BE1AEF
AccurateRip v2 signature : AF877B93
->Rip may not be accurate (total 72 submissions).
Statistics
Read error : 0
Jitter error (maybe fixed) : 0
Retry sector count : 0
Damaged sector count : 0

Track 08
Filename : /Users/Home/Desktop/Bruce Springsteen - 2015 - The Ties That Bind The River Collection FLAC/The River Disc 1/08 - Crush on You.flac

Track gain : -7.77 dB
Peak : 0.989349
CRC32 hash (test run) : C04CA582
CRC32 hash : C04CA582
CRC32 hash (skip zero) : A9A9FFA0
AccurateRip v1 signature : A37A2995
AccurateRip v2 signature : 1FD7B116
->Rip may not be accurate (total 72 submissions).
Statistics
Read error : 0
Jitter error (maybe fixed) : 0
Retry sector count : 0
Damaged sector count : 0

Track 09
Filename : /Users/Home/Desktop/Bruce Springsteen - 2015 - The Ties That Bind The River Collection FLAC/The River Disc 1/09 - You Can Look (But You Better Not Touch).flac

Track gain : -7.92 dB
Peak : 0.989075
CRC32 hash (test run) : 1F84861D
CRC32 hash : 1F84861D
CRC32 hash (skip zero) : 50F29052
AccurateRip v1 signature : 06BB01D0
AccurateRip v2 signature : 1F7BB9E6
->Rip may not be accurate (total 72 submissions).
Statistics
Read error : 0
Jitter error (maybe fixed) : 0
Retry sector count : 0
Damaged sector count : 0

Track 10
Filename : /Users/Home/Desktop/Bruce Springsteen - 2015 - The Ties That Bind The River Collection FLAC/The River Disc 1/10 - I Wanna Marry You.flac
Pre-gap length : 00:02:56

Track gain : -4.27 dB
Peak : 0.988831
CRC32 hash (test run) : 3452E2F7
CRC32 hash : 3452E2F7
CRC32 hash (skip zero) : 07B6F2EF
AccurateRip v1 signature : 196C764C
AccurateRip v2 signature : 17E4DAB5
->Rip may not be accurate (total 72 submissions).
Statistics
Read error : 0
Jitter error (maybe fixed) : 0
Retry sector count : 0
Damaged sector count : 0

Track 11
Filename : /Users/Home/Desktop/Bruce Springsteen - 2015 - The Ties That Bind The River Collection FLAC/The River Disc 1/11 - The River.flac
Pre-gap length : 00:04:24

Track gain : -3.92 dB
Peak : 0.988892
CRC32 hash (test run) : 1F575DDE
CRC32 hash : 1F575DDE
CRC32 hash (skip zero) : 00C97E6C
AccurateRip v1 signature : 6B85A143
AccurateRip v2 signature : 02609B1E
->Rip may not be accurate (total 71 submissions).
Statistics
Read error : 0
Jitter error (maybe fixed) : 0
Retry sector count : 0
Damaged sector count : 0

No errors occurred

End of status report

––-BEGIN XLD SIGNATURE––-
GQvWc12fuBKa56op33U1u49H34fT6NGCbehlK7b.dIU4dQ4C6CirpZuV14WsxgGm4Duz9i1b2ExgzIpEs.EA0ZBkUYDNOCYV18jwlqq
––-END XLD SIGNATURE––-

X Lossless Decoder version 20151128 (149.0)

XLD extraction logfile from 2015-12-05 17:06:26 -0600

Springsteen, Bruce / The River - Disc 2

Used drive : HL-DT-ST DVDRW GA11N (revision JA18)
Media type : Pressed CD

Ripper mode : XLD Secure Ripper
Disable audio cache : OK for the drive with a cache less than 1375KiB
Make use of C2 pointers : NO
Read offset correction : 667
Max retry count : 100
Gap status : Analyzed, Appended (except HTOA)

TOC of the extracted CD
Track | Start | Length | Start sector | End sector
––––––––––––––––––––––––––––-
1 | 00:00:00 | 06:06:74 | 0 | 27523
2 | 06:06:74 | 03:03:07 | 27524 | 41255
3 | 09:10:06 | 03:37:37 | 41256 | 57567
4 | 12:47:43 | 04:46:10 | 57568 | 79027
5 | 17:33:53 | 03:54:31 | 79028 | 96608
6 | 21:28:09 | 04:05:45 | 96609 | 115028
7 | 25:33:54 | 05:29:67 | 115029 | 139770
8 | 31:03:46 | 08:33:25 | 139771 | 178270
9 | 39:36:71 | 03:54:42 | 178271 | 195862

AccurateRip Summary (DiscID: 000e3467-0068d533-820a3309)
Track 01 : NG (total 71 submissions)
Track 02 : NG (total 71 submissions)
Track 03 : NG (total 71 submissions)
Track 04 : NG (total 71 submissions)
Track 05 : NG (total 71 submissions)
Track 06 : NG (total 71 submissions)
Track 07 : NG (total 71 submissions)
Track 08 : NG (total 72 submissions)
Track 09 : NG (total 71 submissions)
->0 track accurately ripped, 9 tracks not

All Tracks
Album gain : -7.36 dB
Peak : 0.992035
Statistics
Read error : 0
Jitter error (maybe fixed) : 0
Retry sector count : 1
Damaged sector count : 0

Track 01
Filename : /Users/Home/Desktop/Bruce Springsteen - 2015 - The Ties That Bind The River Collection FLAC/The River Disc 2/01 - Point Blank.flac
Pre-gap length : 00:02:00

Track gain : -3.78 dB
Peak : 0.989929
CRC32 hash (test run) : 4DB7F646
CRC32 hash : 4DB7F646
CRC32 hash (skip zero) : D4E5B1A6
AccurateRip v1 signature : 31FF4FCD
AccurateRip v2 signature : 4017B3D0
->Rip may not be accurate (total 71 submissions).
Statistics
Read error : 0
Jitter error (maybe fixed) : 0
Retry sector count : 0
Damaged sector count : 0

Track 02
Filename : /Users/Home/Desktop/Bruce Springsteen - 2015 - The Ties That Bind The River Collection FLAC/The River Disc 2/02 - Cadillac Ranch.flac

Track gain : -7.99 dB
Peak : 0.991608
CRC32 hash (test run) : CD4FF3BF
CRC32 hash : CD4FF3BF
CRC32 hash (skip zero) : 9228694D
AccurateRip v1 signature : 793BC7A1
AccurateRip v2 signature : 495ECB00
->Rip may not be accurate (total 71 submissions).
Statistics
Read error : 0
Jitter error (maybe fixed) : 0
Retry sector count : 0
Damaged sector count : 0

Track 03
Filename : /Users/Home/Desktop/Bruce Springsteen - 2015 - The Ties That Bind The River Collection FLAC/The River Disc 2/03 - I'm A Rocker.flac

Track gain : -8.54 dB
Peak : 0.989227
CRC32 hash (test run) : D524080E
CRC32 hash : D524080E
CRC32 hash (skip zero) : 6B8E55E5
AccurateRip v1 signature : 8EB60739
AccurateRip v2 signature : 684626F0
->Rip may not be accurate (total 71 submissions).
Statistics
Read error : 0
Jitter error (maybe fixed) : 0
Retry sector count : 0
Damaged sector count : 0

Track 04
Filename : /Users/Home/Desktop/Bruce Springsteen - 2015 - The Ties That Bind The River Collection FLAC/The River Disc 2/04 - Fade Away.flac
Pre-gap length : 00:02:40

Track gain : -5.87 dB
Peak : 0.978210
CRC32 hash (test run) : 755F57E3
CRC32 hash : 755F57E3
CRC32 hash (skip zero) : 497E8876
AccurateRip v1 signature : DB45A8DB
AccurateRip v2 signature : A82C1341
->Rip may not be accurate (total 71 submissions).
Statistics
Read error : 0
Jitter error (maybe fixed) : 0
Retry sector count : 0
Damaged sector count : 0

Track 05
Filename : /Users/Home/Desktop/Bruce Springsteen - 2015 - The Ties That Bind The River Collection FLAC/The River Disc 2/05 - Stolen Car.flac
Pre-gap length : 00:04:58

Track gain : 1.02 dB
Peak : 0.873199
CRC32 hash (test run) : 6047ED9A
CRC32 hash : 6047ED9A
CRC32 hash (skip zero) : 8276313D
AccurateRip v1 signature : 7123D344
AccurateRip v2 signature : 6BE673A6
->Rip may not be accurate (total 71 submissions).
Statistics
Read error : 0
Jitter error (maybe fixed) : 0
Retry sector count : 1
Damaged sector count : 0

Track 06
Filename : /Users/Home/Desktop/Bruce Springsteen - 2015 - The Ties That Bind The River Collection FLAC/The River Disc 2/06 - Ramrod.flac
Pre-gap length : 00:01:43

Track gain : -8.90 dB
Peak : 0.937317
CRC32 hash (test run) : 4BDF9176
CRC32 hash : 4BDF9176
CRC32 hash (skip zero) : D5ED96E5
AccurateRip v1 signature : 45690B72
AccurateRip v2 signature : 67EF2067
->Rip may not be accurate (total 71 submissions).
Statistics
Read error : 0
Jitter error (maybe fixed) : 0
Retry sector count : 0
Damaged sector count : 0

Track 07
Filename : /Users/Home/Desktop/Bruce Springsteen - 2015 - The Ties That Bind The River Collection FLAC/The River Disc 2/07 - The Price You Pay.flac
Pre-gap length : 00:01:25

Track gain : -7.02 dB
Peak : 0.992035
CRC32 hash (test run) : 1435E6E7
CRC32 hash : 1435E6E7
CRC32 hash (skip zero) : 6627482E
AccurateRip v1 signature : 29DBCDFB
AccurateRip v2 signature : F5A95600
->Rip may not be accurate (total 71 submissions).
Statistics
Read error : 0
Jitter error (maybe fixed) : 0
Retry sector count : 0
Damaged sector count : 0

Track 08
Filename : /Users/Home/Desktop/Bruce Springsteen - 2015 - The Ties That Bind The River Collection FLAC/The River Disc 2/08 - Drive All Night.flac
Pre-gap length : 00:03:00

Track gain : -4.17 dB
Peak : 0.978973
CRC32 hash (test run) : 4346F30D
CRC32 hash : 4346F30D
CRC32 hash (skip zero) : 3FEDD56E
AccurateRip v1 signature : 4FE70583
AccurateRip v2 signature : C4B9E8E6
->Rip may not be accurate (total 72 submissions).
Statistics
Read error : 0
Jitter error (maybe fixed) : 0
Retry sector count : 0
Damaged sector count : 0

Track 09
Filename : /Users/Home/Desktop/Bruce Springsteen - 2015 - The Ties That Bind The River Collection FLAC/The River Disc 2/09 - Wreck On The Highway.flac
Pre-gap length : 00:06:45

Track gain : -2.70 dB
Peak : 0.977356
CRC32 hash (test run) : CAEBE0C0
CRC32 hash : CAEBE0C0
CRC32 hash (skip zero) : AEB0E79F
AccurateRip v1 signature : A6762306
AccurateRip v2 signature : 084473AE
->Rip may not be accurate (total 71 submissions).
Statistics
Read error : 0
Jitter error (maybe fixed) : 0
Retry sector count : 0
Damaged sector count : 0

No errors occurred

End of status report

––-BEGIN XLD SIGNATURE––-
WenCKiP4ppkl_.gh7Mea6CWw1jQN6OPS2cnyZ2HJtw4Oz8GezM2dgcXd1VBHRwvyGLK5aRVtBXpFt834BpXj9SxNahOaOVwhIxIacvS
––-END XLD SIGNATURE––-

X Lossless Decoder version 20151128 (149.0)

XLD extraction logfile from 2015-12-05 17:41:29 -0600

Bruce Springsteen / The River Single Album

Used drive : HL-DT-ST DVDRW GA11N (revision JA18)
Media type : Pressed CD

Ripper mode : XLD Secure Ripper
Disable audio cache : OK for the drive with a cache less than 1375KiB
Make use of C2 pointers : NO
Read offset correction : 667
Max retry count : 100
Gap status : Analyzed, Appended (except HTOA)

TOC of the extracted CD
Track | Start | Length | Start sector | End sector
––––––––––––––––––––––––––––-
1 | 00:00:00 | 03:36:37 | 0 | 16236
2 | 03:36:37 | 02:25:55 | 16237 | 27166
3 | 06:02:17 | 03:28:07 | 27167 | 42773
4 | 09:30:24 | 04:30:56 | 42774 | 63079
5 | 14:01:05 | 03:54:31 | 63080 | 80660
6 | 17:55:36 | 04:56:15 | 80661 | 102875
7 | 22:51:51 | 02:09:04 | 102876 | 112554
8 | 25:00:55 | 05:51:24 | 112555 | 138903
9 | 30:52:04 | 03:28:06 | 138904 | 154509
10 | 34:20:10 | 04:07:03 | 154510 | 173037

AccurateRip Summary
Disc not found in AccurateRip DB.

All Tracks
Album gain : -6.43 dB
Peak : 1.000000
Statistics
Read error : 0
Jitter error (maybe fixed) : 0
Retry sector count : 0
Damaged sector count : 0

Track 01
Filename : /Users/Home/Desktop/Bruce Springsteen - 2015 - The Ties That Bind The River Collection FLAC/The River Single Album/01 - The Ties That Bind.flac
Pre-gap length : 00:02:00

Track gain : -7.29 dB
Peak : 0.991577
CRC32 hash (test run) : 2873DC08
CRC32 hash : 2873DC08
CRC32 hash (skip zero) : C857FD36
AccurateRip v1 signature : 729835D7
AccurateRip v2 signature : FD739C2D
->Track not present in AccurateRip database.
Statistics
Read error : 0
Jitter error (maybe fixed) : 0
Retry sector count : 0
Damaged sector count : 0

Track 02
Filename : /Users/Home/Desktop/Bruce Springsteen - 2015 - The Ties That Bind The River Collection FLAC/The River Single Album/02 - Cindy.flac

Track gain : -5.92 dB
Peak : 0.990967
CRC32 hash (test run) : 5B55ACA8
CRC32 hash : 5B55ACA8
CRC32 hash (skip zero) : 26208FEA
AccurateRip v1 signature : 38DDBF6F
AccurateRip v2 signature : 1CFC5B02
->Track not present in AccurateRip database.
Statistics
Read error : 0
Jitter error (maybe fixed) : 0
Retry sector count : 0
Damaged sector count : 0

Track 03
Filename : /Users/Home/Desktop/Bruce Springsteen - 2015 - The Ties That Bind The River Collection FLAC/The River Single Album/03 - Hungry Heart.flac

Track gain : -7.05 dB
Peak : 0.991180
CRC32 hash (test run) : 0ABC46F8
CRC32 hash : 0ABC46F8
CRC32 hash (skip zero) : E2A6FFE5
AccurateRip v1 signature : 8440BB0B
AccurateRip v2 signature : 3C52E911
->Track not present in AccurateRip database.
Statistics
Read error : 0
Jitter error (maybe fixed) : 0
Retry sector count : 0
Damaged sector count : 0

Track 04
Filename : /Users/Home/Desktop/Bruce Springsteen - 2015 - The Ties That Bind The River Collection FLAC/The River Single Album/04 - Stolen Car.flac
Pre-gap length : 00:02:42

Track gain : -3.59 dB
Peak : 0.988922
CRC32 hash (test run) : 87EE21D8
CRC32 hash : 87EE21D8
CRC32 hash (skip zero) : 605B6BFA
AccurateRip v1 signature : 665BFAF2
AccurateRip v2 signature : 61A5383D
->Track not present in AccurateRip database.
Statistics
Read error : 0
Jitter error (maybe fixed) : 0
Retry sector count : 0
Damaged sector count : 0

Track 05
Filename : /Users/Home/Desktop/Bruce Springsteen - 2015 - The Ties That Bind The River Collection FLAC/The River Single Album/05 - To Be True.flac
Pre-gap length : 00:02:06

Track gain : -6.00 dB
Peak : 0.990540
CRC32 hash (test run) : 43BC5AD3
CRC32 hash : 43BC5AD3
CRC32 hash (skip zero) : DA388B17
AccurateRip v1 signature : 08DA35A6
AccurateRip v2 signature : 248B9D57
->Track not present in AccurateRip database.
Statistics
Read error : 0
Jitter error (maybe fixed) : 0
Retry sector count : 0
Damaged sector count : 0

Track 06
Filename : /Users/Home/Desktop/Bruce Springsteen - 2015 - The Ties That Bind The River Collection FLAC/The River Single Album/06 - The River.flac
Pre-gap length : 00:03:05

Track gain : -4.60 dB
Peak : 0.988922
CRC32 hash (test run) : 7FC16F6D
CRC32 hash : 7FC16F6D
CRC32 hash (skip zero) : 699E72CB
AccurateRip v1 signature : ECAD8FE7
AccurateRip v2 signature : D1572053
->Track not present in AccurateRip database.
Statistics
Read error : 0
Jitter error (maybe fixed) : 0
Retry sector count : 0
Damaged sector count : 0

Track 07
Filename : /Users/Home/Desktop/Bruce Springsteen - 2015 - The Ties That Bind The River Collection FLAC/The River Single Album/07 - You Can Look..(But You Better Not Touch).flac
Pre-gap length : 00:01:44

Track gain : -6.43 dB
Peak : 0.990173
CRC32 hash (test run) : B21A5B33
CRC32 hash : B21A5B33
CRC32 hash (skip zero) : 5C099C40
AccurateRip v1 signature : 524EC8FF
AccurateRip v2 signature : 5AF23A34
->Track not present in AccurateRip database.
Statistics
Read error : 0
Jitter error (maybe fixed) : 0
Retry sector count : 0
Damaged sector count : 0

Track 08
Filename : /Users/Home/Desktop/Bruce Springsteen - 2015 - The Ties That Bind The River Collection FLAC/The River Single Album/08 - The Price You Pay.flac

Track gain : -6.52 dB
Peak : 0.991394
CRC32 hash (test run) : 64EB99CB
CRC32 hash : 64EB99CB
CRC32 hash (skip zero) : C7C33BD0
AccurateRip v1 signature : 5BE86A46
AccurateRip v2 signature : E8720F30
->Track not present in AccurateRip database.
Statistics
Read error : 0
Jitter error (maybe fixed) : 0
Retry sector count : 0
Damaged sector count : 0

Track 09
Filename : /Users/Home/Desktop/Bruce Springsteen - 2015 - The Ties That Bind The River Collection FLAC/The River Single Album/09 - I Wanna Marry You.flac
Pre-gap length : 00:01:74

Track gain : -5.69 dB
Peak : 0.988403
CRC32 hash (test run) : 637E015D
CRC32 hash : 637E015D
CRC32 hash (skip zero) : AA431C21
AccurateRip v1 signature : 01CAD414
AccurateRip v2 signature : 85D9579F
->Track not present in AccurateRip database.
Statistics
Read error : 0
Jitter error (maybe fixed) : 0
Retry sector count : 0
Damaged sector count : 0

Track 10
Filename : /Users/Home/Desktop/Bruce Springsteen - 2015 - The Ties That Bind The River Collection FLAC/The River Single Album/10 - Loose Ends.flac
Pre-gap length : 00:01:54

Track gain : -7.01 dB
Peak : 1.000000
CRC32 hash (test run) : C0BDA46D
CRC32 hash : C0BDA46D
CRC32 hash (skip zero) : 02FAD456
AccurateRip v1 signature : 56AADC4B
AccurateRip v2 signature : CAF5A631
->Track not present in AccurateRip database.
Statistics
Read error : 0
Jitter error (maybe fixed) : 0
Retry sector count : 0
Damaged sector count : 0

No errors occurred

End of status report

––-BEGIN XLD SIGNATURE––-
faa7xh2oLBHMhnkT6aHdVwW3m8EX1UTQ0dqN9OplrPfaZNPEQLRVhti6VYcRt7d9PZuRYVsJwrCgnNWox_Cex18Jx0a.s781ahyROPS
––-END XLD SIGNATURE––-

X Lossless Decoder version 20151128 (149.0)

XLD extraction logfile from 2015-12-05 18:32:40 -0600

Bruce Springsteen / River Outtakes

Used drive : HL-DT-ST DVDRW GA11N (revision JA18)
Media type : Pressed CD

Ripper mode : XLD Secure Ripper
Disable audio cache : OK for the drive with a cache less than 1375KiB
Make use of C2 pointers : NO
Read offset correction : 667
Max retry count : 100
Gap status : Analyzed, Appended (except HTOA)

TOC of the extracted CD
Track | Start | Length | Start sector | End sector
––––––––––––––––––––––––––––-
1 | 00:00:00 | 03:35:74 | 0 | 16198
2 | 03:35:74 | 03:31:27 | 16199 | 32050
3 | 07:07:26 | 02:39:02 | 32051 | 43977
4 | 09:46:28 | 03:39:19 | 43978 | 60421
5 | 13:25:47 | 04:44:00 | 60422 | 81721
6 | 18:09:47 | 03:23:05 | 81722 | 96951
7 | 21:32:52 | 02:49:39 | 96952 | 109665
8 | 24:22:16 | 03:09:59 | 109666 | 123899
9 | 27:32:00 | 03:10:73 | 123900 | 138222
10 | 30:42:73 | 06:09:38 | 138223 | 165935
11 | 36:52:36 | 02:15:65 | 165936 | 176125
12 | 39:08:26 | 03:53:56 | 176126 | 193656
13 | 43:02:07 | 03:45:68 | 193657 | 210599
14 | 46:48:00 | 03:46:17 | 210600 | 227566
15 | 50:34:17 | 03:33:15 | 227567 | 243556
16 | 54:07:32 | 04:19:08 | 243557 | 262989
17 | 58:26:40 | 04:30:45 | 262990 | 283284
18 | 62:57:10 | 02:46:42 | 283285 | 295776
19 | 65:43:52 | 03:23:73 | 295777 | 311074
20 | 69:07:50 | 03:23:32 | 311075 | 326331
21 | 72:31:07 | 01:19:21 | 326332 | 332277
22 | 73:50:28 | 02:42:04 | 332278 | 344431

AccurateRip Summary
Disc not found in AccurateRip DB.

All Tracks
Album gain : -8.55 dB
Peak : 1.000000
Statistics
Read error : 0
Jitter error (maybe fixed) : 0
Retry sector count : 0
Damaged sector count : 0

Track 01
Filename : /Users/Home/Desktop/Bruce Springsteen - 2015 - The Ties That Bind The River Collection FLAC/The River Outtakes/01 - Meet Me In The City.flac
Pre-gap length : 00:02:00

Track gain : -8.45 dB
Peak : 1.000000
CRC32 hash (test run) : E68B8194
CRC32 hash : E68B8194
CRC32 hash (skip zero) : 90B51480
AccurateRip v1 signature : 47F5EBEF
AccurateRip v2 signature : 19BB2DF6
->Track not present in AccurateRip database.
Statistics
Read error : 0
Jitter error (maybe fixed) : 0
Retry sector count : 0
Damaged sector count : 0

Track 02
Filename : /Users/Home/Desktop/Bruce Springsteen - 2015 - The Ties That Bind The River Collection FLAC/The River Outtakes/02 - The Man Who Got Away.flac
Pre-gap length : 00:00:58

Track gain : -7.99 dB
Peak : 1.000000
CRC32 hash (test run) : 63F53B1E
CRC32 hash : 63F53B1E
CRC32 hash (skip zero) : 248B9F7A
AccurateRip v1 signature : AEFCFD53
AccurateRip v2 signature : 442974B4
->Track not present in AccurateRip database.
Statistics
Read error : 0
Jitter error (maybe fixed) : 0
Retry sector count : 0
Damaged sector count : 0

Track 03
Filename : /Users/Home/Desktop/Bruce Springsteen - 2015 - The Ties That Bind The River Collection FLAC/The River Outtakes/03 - Little White Lies.flac
Pre-gap length : 00:02:09

Track gain : -7.81 dB
Peak : 1.000000
CRC32 hash (test run) : BB949FB8
CRC32 hash : BB949FB8
CRC32 hash (skip zero) : 0389E062
AccurateRip v1 signature : 2454E7EE
AccurateRip v2 signature : 95287C2F
->Track not present in AccurateRip database.
Statistics
Read error : 0
Jitter error (maybe fixed) : 0
Retry sector count : 0
Damaged sector count : 0

Track 04
Filename : /Users/Home/Desktop/Bruce Springsteen - 2015 - The Ties That Bind The River Collection FLAC/The River Outtakes/04 - The Time That Never Was.flac
Pre-gap length : 00:02:13

Track gain : -7.50 dB
Peak : 0.999969
CRC32 hash (test run) : FE7DD644
CRC32 hash : FE7DD644
CRC32 hash (skip zero) : 90EB19F1
AccurateRip v1 signature : EB5CAB7F
AccurateRip v2 signature : 68688693
->Track not present in AccurateRip database.
Statistics
Read error : 0
Jitter error (maybe fixed) : 0
Retry sector count : 0
Damaged sector count : 0

Track 05
Filename : /Users/Home/Desktop/Bruce Springsteen - 2015 - The Ties That Bind The River Collection FLAC/The River Outtakes/05 - Night Fire.flac
Pre-gap length : 00:01:33

Track gain : -7.85 dB
Peak : 1.000000
CRC32 hash (test run) : B641CA4E
CRC32 hash : B641CA4E
CRC32 hash (skip zero) : A2987491
AccurateRip v1 signature : 6D714123
AccurateRip v2 signature : 6C8A5154
->Track not present in AccurateRip database.
Statistics
Read error : 0
Jitter error (maybe fixed) : 0
Retry sector count : 0
Damaged sector count : 0

Track 06
Filename : /Users/Home/Desktop/Bruce Springsteen - 2015 - The Ties That Bind The River Collection FLAC/The River Outtakes/06 - Whitetown.flac
Pre-gap length : 00:01:59

Track gain : -7.27 dB
Peak : 1.000000
CRC32 hash (test run) : 8D29AF13
CRC32 hash : 8D29AF13
CRC32 hash (skip zero) : D4A58DEB
AccurateRip v1 signature : B4D794BD
AccurateRip v2 signature : CA4DA3F2
->Track not present in AccurateRip database.
Statistics
Read error : 0
Jitter error (maybe fixed) : 0
Retry sector count : 0
Damaged sector count : 0

Track 07
Filename : /Users/Home/Desktop/Bruce Springsteen - 2015 - The Ties That Bind The River Collection FLAC/The River Outtakes/07 - Chain Lightning.flac

Track gain : -8.95 dB
Peak : 1.000000
CRC32 hash (test run) : 2612BC47
CRC32 hash : 2612BC47
CRC32 hash (skip zero) : B7B11257
AccurateRip v1 signature : 204E9918
AccurateRip v2 signature : 2B414B14
->Track not present in AccurateRip database.
Statistics
Read error : 0
Jitter error (maybe fixed) : 0
Retry sector count : 0
Damaged sector count : 0

Track 08
Filename : /Users/Home/Desktop/Bruce Springsteen - 2015 - The Ties That Bind The River Collection FLAC/The River Outtakes/08 - Party Lights.flac

Track gain : -7.48 dB
Peak : 0.999969
CRC32 hash (test run) : A909967E
CRC32 hash : A909967E
CRC32 hash (skip zero) : 931A0240
AccurateRip v1 signature : 54A3F73E
AccurateRip v2 signature : 17A3E501
->Track not present in AccurateRip database.
Statistics
Read error : 0
Jitter error (maybe fixed) : 0
Retry sector count : 0
Damaged sector count : 0

Track 09
Filename : /Users/Home/Desktop/Bruce Springsteen - 2015 - The Ties That Bind The River Collection FLAC/The River Outtakes/09 - Paradise By The "C".flac
Pre-gap length : 00:01:26

Track gain : -9.75 dB
Peak : 1.000000
CRC32 hash (test run) : 41FECE62
CRC32 hash : 41FECE62
CRC32 hash (skip zero) : BB666FE7
AccurateRip v1 signature : 671B664B
AccurateRip v2 signature : A4D63647
->Track not present in AccurateRip database.
Statistics
Read error : 0
Jitter error (maybe fixed) : 0
Retry sector count : 0
Damaged sector count : 0

Track 10
Filename : /Users/Home/Desktop/Bruce Springsteen - 2015 - The Ties That Bind The River Collection FLAC/The River Outtakes/10 - Stray Bullet.flac
Pre-gap length : 00:03:47

Track gain : -4.31 dB
Peak : 0.989197
CRC32 hash (test run) : D135CD40
CRC32 hash : D135CD40
CRC32 hash (skip zero) : C32FA43D
AccurateRip v1 signature : CB1A6767
AccurateRip v2 signature : 398E9D92
->Track not present in AccurateRip database.
Statistics
Read error : 0
Jitter error (maybe fixed) : 0
Retry sector count : 0
Damaged sector count : 0

Track 11
Filename : /Users/Home/Desktop/Bruce Springsteen - 2015 - The Ties That Bind The River Collection FLAC/The River Outtakes/11 - Mr. Outside.flac
Pre-gap length : 00:03:33

Track gain : 0.38 dB
Peak : 0.419617
CRC32 hash (test run) : D90CCB5B
CRC32 hash : D90CCB5B
CRC32 hash (skip zero) : EF5C8CE0
AccurateRip v1 signature : 6D8BFE5C
AccurateRip v2 signature : FB2AE7A3
->Track not present in AccurateRip database.
Statistics
Read error : 0
Jitter error (maybe fixed) : 0
Retry sector count : 0
Damaged sector count : 0

Track 12
Filename : /Users/Home/Desktop/Bruce Springsteen - 2015 - The Ties That Bind The River Collection FLAC/The River Outtakes/12 - Roulette.flac
Pre-gap length : 00:04:19

Track gain : -8.60 dB
Peak : 0.999115
CRC32 hash (test run) : 8C7A02BD
CRC32 hash : 8C7A02BD
CRC32 hash (skip zero) : 3E6FE68A
AccurateRip v1 signature : 191E1699
AccurateRip v2 signature : BBB362AF
->Track not present in AccurateRip database.
Statistics
Read error : 0
Jitter error (maybe fixed) : 0
Retry sector count : 0
Damaged sector count : 0

Track 13
Filename : /Users/Home/Desktop/Bruce Springsteen - 2015 - The Ties That Bind The River Collection FLAC/The River Outtakes/13 - Restless Nights.flac
Pre-gap length : 00:01:44

Track gain : -8.77 dB
Peak : 0.993652
CRC32 hash (test run) : 562C91C2
CRC32 hash : 562C91C2
CRC32 hash (skip zero) : E1A6CBA4
AccurateRip v1 signature : 503B87AF
AccurateRip v2 signature : 39D7CC68
->Track not present in AccurateRip database.
Statistics
Read error : 0
Jitter error (maybe fixed) : 0
Retry sector count : 0
Damaged sector count : 0

Track 14
Filename : /Users/Home/Desktop/Bruce Springsteen - 2015 - The Ties That Bind The River Collection FLAC/The River Outtakes/14 - Where The Bands Are.flac
Pre-gap length : 00:02:13

Track gain : -9.62 dB
Peak : 0.999512
CRC32 hash (test run) : 36D6C344
CRC32 hash : 36D6C344
CRC32 hash (skip zero) : BF480815
AccurateRip v1 signature : D604F5A9
AccurateRip v2 signature : 6D296E21
->Track not present in AccurateRip database.
Statistics
Read error : 0
Jitter error (maybe fixed) : 0
Retry sector count : 0
Damaged sector count : 0

Track 15
Filename : /Users/Home/Desktop/Bruce Springsteen - 2015 - The Ties That Bind The River Collection FLAC/The River Outtakes/15 - Dollhouse.flac
Pre-gap length : 00:02:46

Track gain : -8.66 dB
Peak : 0.984497
CRC32 hash (test run) : BD591D37
CRC32 hash : BD591D37
CRC32 hash (skip zero) : 2538403E
AccurateRip v1 signature : A37D7595
AccurateRip v2 signature : 55C08F22
->Track not present in AccurateRip database.
Statistics
Read error : 0
Jitter error (maybe fixed) : 0
Retry sector count : 0
Damaged sector count : 0

Track 16
Filename : /Users/Home/Desktop/Bruce Springsteen - 2015 - The Ties That Bind The River Collection FLAC/The River Outtakes/16 - Living On The Edge Of The World.flac
Pre-gap length : 00:01:50

Track gain : -8.16 dB
Peak : 0.987793
CRC32 hash (test run) : 8CDA3C3D
CRC32 hash : 8CDA3C3D
CRC32 hash (skip zero) : 7AA2D19D
AccurateRip v1 signature : 259BC7A1
AccurateRip v2 signature : A73CD5F2
->Track not present in AccurateRip database.
Statistics
Read error : 0
Jitter error (maybe fixed) : 0
Retry sector count : 0
Damaged sector count : 0

Track 17
Filename : /Users/Home/Desktop/Bruce Springsteen - 2015 - The Ties That Bind The River Collection FLAC/The River Outtakes/17 - Take 'Em As They Come.flac
Pre-gap length : 00:01:72

Track gain : -9.25 dB
Peak : 0.983093
CRC32 hash (test run) : E0B8886E
CRC32 hash : E0B8886E
CRC32 hash (skip zero) : 38DC7BDD
AccurateRip v1 signature : 230EECD6
AccurateRip v2 signature : E9FC8034
->Track not present in AccurateRip database.
Statistics
Read error : 0
Jitter error (maybe fixed) : 0
Retry sector count : 0
Damaged sector count : 0

Track 18
Filename : /Users/Home/Desktop/Bruce Springsteen - 2015 - The Ties That Bind The River Collection FLAC/The River Outtakes/18 - Ricky Wants A Man Of Her Own.flac
Pre-gap length : 00:02:42

Track gain : -8.26 dB
Peak : 0.980103
CRC32 hash (test run) : B255BD87
CRC32 hash : B255BD87
CRC32 hash (skip zero) : C8F754FD
AccurateRip v1 signature : A2F6094D
AccurateRip v2 signature : 15748784
->Track not present in AccurateRip database.
Statistics
Read error : 0
Jitter error (maybe fixed) : 0
Retry sector count : 0
Damaged sector count : 0

Track 19
Filename : /Users/Home/Desktop/Bruce Springsteen - 2015 - The Ties That Bind The River Collection FLAC/The River Outtakes/19 - I Wanna Be With You.flac
Pre-gap length : 00:01:71

Track gain : -8.89 dB
Peak : 0.993896
CRC32 hash (test run) : 6647DC45
CRC32 hash : 6647DC45
CRC32 hash (skip zero) : C8BBA1AA
AccurateRip v1 signature : 02B2AAE0
AccurateRip v2 signature : 31C0F127
->Track not present in AccurateRip database.
Statistics
Read error : 0
Jitter error (maybe fixed) : 0
Retry sector count : 0
Damaged sector count : 0

Track 20
Filename : /Users/Home/Desktop/Bruce Springsteen - 2015 - The Ties That Bind The River Collection FLAC/The River Outtakes/20 - Mary Lou.flac
Pre-gap length : 00:02:13

Track gain : -8.12 dB
Peak : 0.992310
CRC32 hash (test run) : 7C9B6BF9
CRC32 hash : 7C9B6BF9
CRC32 hash (skip zero) : 938B92A6
AccurateRip v1 signature : A9386770
AccurateRip v2 signature : 704545FB
->Track not present in AccurateRip database.
Statistics
Read error : 0
Jitter error (maybe fixed) : 0
Retry sector count : 0
Damaged sector count : 0

Track 21
Filename : /Users/Home/Desktop/Bruce Springsteen - 2015 - The Ties That Bind The River Collection FLAC/The River Outtakes/21 - Held Up Without A Gun.flac
Pre-gap length : 00:02:34

Track gain : -8.89 dB
Peak : 0.991669
CRC32 hash (test run) : 32D844DE
CRC32 hash : 32D844DE
CRC32 hash (skip zero) : 713C3B9E
AccurateRip v1 signature : B7C3A259
AccurateRip v2 signature : 752C1A0C
->Track not present in AccurateRip database.
Statistics
Read error : 0
Jitter error (maybe fixed) : 0
Retry sector count : 0
Damaged sector count : 0

Track 22
Filename : /Users/Home/Desktop/Bruce Springsteen - 2015 - The Ties That Bind The River Collection FLAC/The River Outtakes/22 - From Small Things (Big Things One Day Come).flac
Pre-gap length : 00:02:53

Track gain : -7.16 dB
Peak : 0.989075
CRC32 hash (test run) : 0298ACDE
CRC32 hash : 0298ACDE
CRC32 hash (skip zero) : ABF059D3
AccurateRip v1 signature : 863A1879
AccurateRip v2 signature : C3C9DAE2
->Track not present in AccurateRip database.
Statistics
Read error : 0
Jitter error (maybe fixed) : 0
Retry sector count : 0
Damaged sector count : 0

No errors occurred

End of status report

––-BEGIN XLD SIGNATURE––-
4uPO8o83.5m3LUyka.VdomkF7kjdzFu_O0ykeoHja0lk0KOjJ8l9fVcqfeTN7CZzA7UbNih8_VkmWLpJJgtCkEL1GOrr63W_wZc0k2i
––-END XLD SIGNATURE––-

Thanks to the Original ripper freddobars !