Uri Caine Ensemble - Wagner e Venezia (1997) {Winter & Winter 910 013-2}

Uri Caine Ensemble - Wagner e Venezia (1997) {Winter & Winter 910 013-2}

Uri Caine Ensemble - Wagner e Venezia (1997) {Winter & Winter 910 013-2}
EAC rip (secure mode) | FLAC (tracks)+CUE+LOG -> 301 Mb | MP3 @320 -> 130 Mb
Full Artwork @ 300 dpi (jpg) -> 30 Mb | 5% repair rar
© 1997 Winter & Winter | 910 013-2
Jazz / Chamber Jazz / Classical / Avant-Garde Jazz / Piano

Uri Caine, like many other jazz players, has a fairly solid background in classical music. Unlike many jazz players, he has found a way to successfully work in the classical repertoire while using improvisation and love of a variety of musical styles he came by as a jazz player. To that end, Caine has released a handful of stunningly original albums covering the music of Mahler, Schumann, Bach, and Wagner. While Caine's critically acclaimed Mahler (Urlicht/Primal Light) and Bach (Goldberg Variations) discs have featured him, at times, radically reworking the material, this fine Wagner program finds the pianist sticking mostly to the original scores.

And even though the occasional drum machine and DJ treatment heard on other discs are not present, Caine does include an accordion and double bass to the basic quartet of two violins, cello, and piano. Recorded live in Venice at the Piazza San Marco, Wagner e Venezia takes in the overtures from Die Meistersinger, Lohengrin, and Tannhaüser, as well as the "Liebestod" from Tristan und Isolde. For the most part, the music moves at a lithe pace, matching the festive sounds of the crowd with exuberant and playful performances. Maybe not the right fit for classical purists, but certainly a fine offering for the adventurous listener.
Uri Caine Ensemble - Wagner e Venezia (1997) {Winter & Winter 910 013-2}


AAJ INFO

Personnel:
Uri Caine: piano
Mark Feldman: 1st violin
Joyce Hammann: 2nd violin
Erik Friedlander: violoncello
Drew Gress: acoustic bass
Dominic Cortese: accordion

tracklist:
01 - Liebestod (Tristan und Isolde)
02 - Ouverture (Tannhauser)
03 - Ouverture (Lohengrin, 3. Akt)
04 - Prelude (Tristan und Isolde)
05 - Ouverture (Die Meistersinger von Nurnberg)
06 - Der Ritt Der Walkuren
07 - Ouverture (Lohengrin, 1. Akt)

Exact Audio Copy V0.99 prebeta 4 from 23. January 2008

EAC extraction logfile from 22. June 2008, 1:46

Uri Caine Ensemble / Wagner e Venezia

Used drive : HL-DT-STDVDRAM GSA-H42N Adapter: 0 ID: 0

Read mode : Secure
Utilize accurate stream : Yes
Defeat audio cache : Yes
Make use of C2 pointers : No

Read offset correction : 667
Overread into Lead-In and Lead-Out : No
Fill up missing offset samples with silence : Yes
Delete leading and trailing silent blocks : No
Null samples used in CRC calculations : Yes
Used interface : Installed external ASPI interface
Gap handling : Appended to previous track

Used output format : User Defined Encoder
Selected bitrate : 1024 kBit/s
Quality : High
Add ID3 tag : No
Command line compressor : C:\Programme\Exact Audio Copy\FLAC\FLAC.EXE
Additional command line options : -8 -V -T "ARTIST=%a" -T "TITLE=%t" -T "ALBUM=%g" -T "DATE=%y" -T "TRACKNUMBER=%n" -T "GENRE=%m" -T "COMMENT=EAC FLAC -8" %s


TOC of the extracted CD

Track | Start | Length | Start sector | End sector
––––––––––––––––––––––––––––-
1 | 0:00.00 | 7:59.52 | 0 | 35976
2 | 7:59.52 | 10:38.48 | 35977 | 83874
3 | 18:38.25 | 3:59.02 | 83875 | 101801
4 | 22:37.27 | 9:25.00 | 101802 | 144176
5 | 32:02.27 | 9:43.25 | 144177 | 187926
6 | 41:45.52 | 4:42.65 | 187927 | 209141
7 | 46:28.42 | 8:58.48 | 209142 | 249539


Track 1

Filename D:\EAC\01 - Liebestod (Tristan und Isolde).wav

Pre-gap length 0:00:02.00

Peak level 98.0 %
Track quality 100.0 %
Test CRC FBBB7682
Copy CRC FBBB7682
Copy OK

Track 2

Filename D:\EAC\02 - Ouverture (Tannhauser).wav

Peak level 98.0 %
Track quality 100.0 %
Test CRC 81E6561C
Copy CRC 81E6561C
Copy OK

Track 3

Filename D:\EAC\03 - Ouverture (Lohengrin, 3. Akt).wav

Peak level 98.0 %
Track quality 100.0 %
Test CRC DDC65F90
Copy CRC DDC65F90
Copy OK

Track 4

Filename D:\EAC\04 - Prelude (Tristan und Isolde).wav

Peak level 98.0 %
Track quality 100.0 %
Test CRC 41573FAE
Copy CRC 41573FAE
Copy OK

Track 5

Filename D:\EAC\05 - Ouverture (Die Meistersinger von Nurnberg).wav

Peak level 98.0 %
Track quality 100.0 %
Test CRC C7F6BBD5
Copy CRC C7F6BBD5
Copy OK

Track 6

Filename D:\EAC\06 - Der Ritt Der Walkuren.wav

Peak level 98.0 %
Track quality 100.0 %
Test CRC 96259EAF
Copy CRC 96259EAF
Copy OK

Track 7

Filename D:\EAC\07 - Ouverture (Lohengrin, 1. Akt).wav

Peak level 98.0 %
Track quality 99.9 %
Test CRC A4AE6D71
Copy CRC A4AE6D71
Copy OK

No errors occurred

End of status report


Uri Caine Ensemble - Wagner e Venezia (1997) {Winter & Winter 910 013-2}

Uri Caine Ensemble - Wagner e Venezia (1997) {Winter & Winter 910 013-2}



===