Alison Moyet - The Other Live Collection (2018) [Official Digital Download]

Alison Moyet - The Other Live Collection (2018) [Official Digital Download]

Alison Moyet - The Other Live Collection (2018)
FLAC (tracks) 24-bit/44.1 kHz | Time - 53:06 minutes | 607 MB
Studio Master, Official Digital Download | Artwork: Front Cover

Ahead of appearing as special guest of Tears For Fearson their 11 date UK arena tour this spring, electronic pop pioneer Alison Moyet releases ‘The Other Live Collection’ on Cooking Vinyl 20th April.

Over a 35-year recording career, three-times BRIT Award-winner and Grammy-nominee Alison Moyet has released 9 solo studio albums and a further 3 compilations. 2017 saw Alison return witha new album ‘Other’,an at turns expressively poetic and archly wry collection of electronic vignettes.

In support of the record, Alison embarked on a triumphant world tour which saw her play59 shows in 58 cities including the iconicParadiso in Amsterdam, The Fillmore in San Francisco, the Enmore Theatre in Sydney and 2 nights at the London Palladium.

This live collection consists of tracksspanning the entirety of her career,and includesthe first airing of a selection of live songs taken from her most-recent album ‘Other’, reworked favourites such as ‘Wishing You Were Here’, ‘Ski’, and ‘The Man In The Wings’, as well as the undeniable hits ‘Only You’ and ‘All Cried Out’.

Alison Moyet first came to prominence as one half of pioneering electronic duo Yazoo with their short-lived alchemic partnership producing two seminal hit albums, before disbanding at the height of their success. Following a furious bidding war, Alison signed to Columbia and her extraordinary solo career began which spawned many multi-platinum albums and sold out worldwide tours.

Tracklist:
1. I Germinate 03:50
2. Wishing You Were Here 03:48
3. Ski04:19
4. The English U05:11
5. Only You 03:12
6. Beautiful Gun 03:19
7. The Sharpest Corner (Hollow) 04:32
8. All Cried Out 03:50
9. The Man in the Wings05:07
10. Other 03:44
11. The Rarest Birds 04:16
12. Right as Rain 03:51
13. Whispering Your Name 04:07

foobar2000 1.3.7 / Dynamic Range Meter 1.1.1
log date: 2018-04-20 02:02:01

––––––––––––––––––––––––––––––––––––––––
Analyzed: Alison Moyet / The Other Live Collection
––––––––––––––––––––––––––––––––––––––––

DR Peak RMS Duration Track
––––––––––––––––––––––––––––––––––––––––
DR9 -0.68 dB -11.89 dB 3:50 01-I Germinate
DR9 -0.68 dB -12.36 dB 3:49 02-Wishing You Were Here
DR10 -0.68 dB -12.64 dB 4:20 03-Ski
DR8 -0.68 dB -12.01 dB 5:12 04-The English U
DR10 -0.68 dB -12.46 dB 3:12 05-Only You
DR7 -0.68 dB -9.65 dB 3:20 06-Beautiful Gun
DR8 -0.68 dB -11.69 dB 4:33 07-The Sharpest Corner (Hollow)
DR9 -0.68 dB -11.69 dB 3:50 08-All Cried Out
DR13 -0.68 dB -16.10 dB 5:07 09-The Man in the Wings
DR11 -3.22 dB -18.75 dB 3:44 10-Other
DR8 -0.68 dB -12.03 dB 4:16 11-The Rarest Birds
DR9 -0.68 dB -11.19 dB 3:52 12-Right as Rain
DR9 -0.68 dB -12.09 dB 4:08 13-Whispering Your Name
––––––––––––––––––––––––––––––––––––––––

Number of tracks: 13
Official DR value: DR9

Samplerate: 44100 Hz
Channels: 2
Bits per sample: 24
Bitrate: 1661 kbps
Codec: FLAC
================================================================================


Thanks to the Original customer.