Boulez Conducts: Schoenberg, Berio, Carter, Kurtag, Xenakis [5CD Box Set] (1995)

Boulez Conducts: Schoenberg, Berio, Carter, Kurtag, Xenakis [5CD Box Set] (1995)

Boulez Conducts: Schoenberg, Berio, Carter, Kurtag, Xenakis [5CD Box Set] (1995)
5CD | EAC-Rip | FLAC-tracks +cue +log +Booklet/SCANS | June 6, 1995 | 1.11 Gb
Genre: Classical, Instrumental | RAR 3% Rec. | Label: Elektra/Wea | Hotfile, Fileserve

Collecting five CDs, this set of Boulez recordings is without parallel among the conductor's new-music releases. Imagine getting Boulez's celebrated single CD of Luciano Berio's Sinfonia and Eindrucke and his equally impressive single CD of Arnold Schoenberg's Pelleas und Melisande and Variations for Orchestra, bundled with four pivotal Elliott Carter works, Sir Harrison Birtwistle's electrifying …AGM…, Gerard Grisey's Modulations, Iannis Xenakis's Jalons, Hugues Dufourt's Antiphysis, and Brian Ferneyhough's Funerailles, and you have an idea how far this set stretches.

Boulez Conducts: Schoenberg, Berio, Carter, Kurtag, Xenakis [5CD Box Set] (1995)

There are the uproarious moments of Berio's clattery free-for-all approach easily juxtaposed against Schoenberg's more measured Variations, as it illuminates the crossroads of serialism and standard classical methodologies. The most astonishing moments come in the Kurtag songs, themselves echoing Pierrot Lunaire, and the Birtwistle work, which crosses extended vocal patterns with exclamatory orchestral interruptions to great effect. For anyone interested in Boulez's conductorly contributions to the postserial world, this is a surefire collection that opens the window on the great one's magic with difficult, thorny music. It also serves as a fascinating primer on the expansion of new music's techniques, especially when you consider the Elliott Carter works, all of them post-1975 and each uniquely expanding the American canon immeasurably, or the Grisey, Dufourt, and Ferneyhough works, as each of these composers came of age in the post-World War II era.
Tracklist:

CD1 - Arnold Schoenberg

01. Pelleas und Melisande Op.5 [40:20]
Symphonic poem after Maurice Maeterlinck

02. Variations for Orchestra Op.31 - Introduction [01:36]
03. Variations for Orchestra Op.31 - Theme [01:04]
04. Variations for Orchestra Op.31 - Variation I [01:12]
05. Variations for Orchestra Op.31 - Variation II [01:31]
06. Variations for Orchestra Op.31 - Variation III [00:42]
07. Variations for Orchestra Op.31 - Variation IV [01:27]
08. Variations for Orchestra Op.31 - Variation V [01:47]
09. Variations for Orchestra Op.31 - Variation VI [01:27]
10. Variations for Orchestra Op.31 - Variation VII [02:09]
11. Variations for Orchestra Op.31 - Variation VIII [00:34]
12. Variations for Orchestra Op.31 - Variation IX [01:02]
13. Variations for Orchestra Op.31 - Finale [05:26]

Chicago Symphony Orchestra
Pierre Boulez
, conductor

Recorded in: 6-10/1991, Orchestra Hall, Chicago
Erato YEAR: 1992

Exact Audio Copy V0.99 prebeta 4 from 23. January 2008

EAC extraction logfile from 26. April 2009, 16:13

CSO, Pierre Boulez / Schoenberg: Pelleas Und Melisande, Variationen Op. 31

Used drive : TSSTcorpCD/DVDW TS-L632D Adapter: 5 ID: 0

Read mode : Secure
Utilize accurate stream : Yes
Defeat audio cache : Yes
Make use of C2 pointers : No

Read offset correction : 6
Overread into Lead-In and Lead-Out : No
Fill up missing offset samples with silence : Yes
Delete leading and trailing silent blocks : No
Null samples used in CRC calculations : Yes
Used interface : Native Win32 interface for Win NT & 2000
Gap handling : Appended to previous track

Used output format : User Defined Encoder
Selected bitrate : 1024 kBit/s
Quality : High
Add ID3 tag : No
Command line compressor : C:\Program Files\FLAC\flac.exe
Additional command line options : -8 -V -T "ARTIST=%a" -T "TITLE=%t" -T "ALBUM=%g" -T "DATE=%y" -T "TRACKNUMBER=%n" -T "GENRE=%m" -T "COMMENT=EAC FLAC -8" %s

TOC of the extracted CD

Track | Start | Length | Start sector | End sector
––––––––––––––––––––––––––––-
1 | 0:00.00 | 40:20.20 | 0 | 181519
2 | 40:20.20 | 1:36.35 | 181520 | 188754
3 | 41:56.55 | 1:04.20 | 188755 | 193574
4 | 43:01.00 | 1:12.50 | 193575 | 199024
5 | 44:13.50 | 1:31.25 | 199025 | 205874
6 | 45:45.00 | 0:42.25 | 205875 | 209049
7 | 46:27.25 | 1:27.40 | 209050 | 215614
8 | 47:54.65 | 1:47.22 | 215615 | 223661
9 | 49:42.12 | 1:27.58 | 223662 | 230244
10 | 51:09.70 | 2:09.27 | 230245 | 239946
11 | 53:19.22 | 0:34.68 | 239947 | 242564
12 | 53:54.15 | 1:02.15 | 242565 | 247229
13 | 54:56.30 | 5:26.70 | 247230 | 271749

Track 1

Filename D:\Music\Pierre Boulez\1995 - ERATO 4509-98496-2 (5CD) {Schoenberg, Berio, Carter, Kurtag, Xenakis etc}\CD1\01 - Pelleas und Melisande Op.5.wav

Pre-gap length 0:00:02.00

Peak level 100.0 %
Track quality 100.0 %
Test CRC 26D21FC6
Copy CRC 26D21FC6
Cannot be verified as accurate (confidence 2) [802D8FCE], AccurateRip returned [54ABB0FB]
Copy OK

Track 2

Filename D:\Music\Pierre Boulez\1995 - ERATO 4509-98496-2 (5CD) {Schoenberg, Berio, Carter, Kurtag, Xenakis etc}\CD1\02 - Variations for Orchestra Op.31 - Introduction.wav

Pre-gap length 0:00:08.93

Peak level 46.3 %
Track quality 100.0 %
Test CRC 5E93E178
Copy CRC 5E93E178
Cannot be verified as accurate (confidence 2) [15F4ACF7], AccurateRip returned [001517AA]
Copy OK

Track 3

Filename D:\Music\Pierre Boulez\1995 - ERATO 4509-98496-2 (5CD) {Schoenberg, Berio, Carter, Kurtag, Xenakis etc}\CD1\03 - Variations for Orchestra Op.31 - Theme.wav

Peak level 10.3 %
Track quality 100.0 %
Test CRC E0EB7E2E
Copy CRC E0EB7E2E
Cannot be verified as accurate (confidence 2) [2C978C7A], AccurateRip returned [B9E15420]
Copy OK

Track 4

Filename D:\Music\Pierre Boulez\1995 - ERATO 4509-98496-2 (5CD) {Schoenberg, Berio, Carter, Kurtag, Xenakis etc}\CD1\04 - Variations for Orchestra Op.31 - Variation I.wav

Peak level 46.3 %
Track quality 100.0 %
Test CRC FB9D9442
Copy CRC FB9D9442
Cannot be verified as accurate (confidence 2) [41148B6B], AccurateRip returned [1FA7D6B3]
Copy OK

Track 5

Filename D:\Music\Pierre Boulez\1995 - ERATO 4509-98496-2 (5CD) {Schoenberg, Berio, Carter, Kurtag, Xenakis etc}\CD1\05 - Variations for Orchestra Op.31 - Variation II.wav

Peak level 12.1 %
Track quality 100.0 %
Test CRC B57B811A
Copy CRC B57B811A
Cannot be verified as accurate (confidence 2) [A26DBF84], AccurateRip returned [65AE1F1C]
Copy OK

Track 6

Filename D:\Music\Pierre Boulez\1995 - ERATO 4509-98496-2 (5CD) {Schoenberg, Berio, Carter, Kurtag, Xenakis etc}\CD1\06 - Variations for Orchestra Op.31 - Variation III.wav

Peak level 76.9 %
Track quality 100.0 %
Test CRC 619AE2CE
Copy CRC 619AE2CE
Cannot be verified as accurate (confidence 2) [2C059F8D], AccurateRip returned [6A864EFB]
Copy OK

Track 7

Filename D:\Music\Pierre Boulez\1995 - ERATO 4509-98496-2 (5CD) {Schoenberg, Berio, Carter, Kurtag, Xenakis etc}\CD1\07 - Variations for Orchestra Op.31 - Variation IV.wav

Peak level 27.4 %
Track quality 100.0 %
Test CRC 0648A5CD
Copy CRC 0648A5CD
Cannot be verified as accurate (confidence 2) [D41F526F], AccurateRip returned [53276A0A]
Copy OK

Track 8

Filename D:\Music\Pierre Boulez\1995 - ERATO 4509-98496-2 (5CD) {Schoenberg, Berio, Carter, Kurtag, Xenakis etc}\CD1\08 - Variations for Orchestra Op.31 - Variation V.wav

Peak level 82.7 %
Track quality 100.0 %
Test CRC A43FA849
Copy CRC A43FA849
Cannot be verified as accurate (confidence 2) [672BF087], AccurateRip returned [D30316C2]
Copy OK

Track 9

Filename D:\Music\Pierre Boulez\1995 - ERATO 4509-98496-2 (5CD) {Schoenberg, Berio, Carter, Kurtag, Xenakis etc}\CD1\09 - Variations for Orchestra Op.31 - Variation VI.wav

Peak level 10.2 %
Track quality 100.0 %
Test CRC A954EAF0
Copy CRC A954EAF0
Cannot be verified as accurate (confidence 2) [0174F4E3], AccurateRip returned [24A28B5E]
Copy OK

Track 10

Filename D:\Music\Pierre Boulez\1995 - ERATO 4509-98496-2 (5CD) {Schoenberg, Berio, Carter, Kurtag, Xenakis etc}\CD1\10 - Variations for Orchestra Op.31 - Variation VII.wav

Peak level 17.4 %
Track quality 100.0 %
Test CRC 62FB33FD
Copy CRC 62FB33FD
Cannot be verified as accurate (confidence 2) [0E5D7F86], AccurateRip returned [D868FB26]
Copy OK

Track 11

Filename D:\Music\Pierre Boulez\1995 - ERATO 4509-98496-2 (5CD) {Schoenberg, Berio, Carter, Kurtag, Xenakis etc}\CD1\11 - Variations for Orchestra Op.31 - Variation VIII.wav

Peak level 73.9 %
Track quality 100.0 %
Test CRC 890E1BA4
Copy CRC 890E1BA4
Cannot be verified as accurate (confidence 2) [DF3DC8E0], AccurateRip returned [A9376A09]
Copy OK

Track 12

Filename D:\Music\Pierre Boulez\1995 - ERATO 4509-98496-2 (5CD) {Schoenberg, Berio, Carter, Kurtag, Xenakis etc}\CD1\12 - Variations for Orchestra Op.31 - Variation IX.wav

Peak level 29.1 %
Track quality 100.0 %
Test CRC 3DBB1452
Copy CRC 3DBB1452
Cannot be verified as accurate (confidence 2) [A31A5E9E], AccurateRip returned [9EB0BF80]
Copy OK

Track 13

Filename D:\Music\Pierre Boulez\1995 - ERATO 4509-98496-2 (5CD) {Schoenberg, Berio, Carter, Kurtag, Xenakis etc}\CD1\13 - Variations for Orchestra Op.31 - Finale.wav

Peak level 99.0 %
Track quality 100.0 %
Test CRC CD63AD29
Copy CRC CD63AD29
Cannot be verified as accurate (confidence 2) [C5EBC112], AccurateRip returned [2A30BAFD]
Copy OK

No tracks could be verified as accurate
You may have a different pressing from the one(s) in the database

No errors occurred

End of status report


CD2 - Luciano Berio

01. Sinfonia (for 8 voices and orchestra) I - [06:20]
02. Sinfonia (for 8 voices and orchestra) II - O King [05:01]
03. Sinfonia (for 8 voices and orchestra) III - In ruhig flie?ender Bewegung [12:26]
04. Sinfonia (for 8 voices and orchestra) IV - [03:25]
05. Sinfonia (for 8 voices and orchestra) V - [07:19]
Regis Pasquier, violin
New Swingle Singers
(Conductor: Ward Swingle)

06. Eindrucke [10:15]

Orchestre National de France
Pierre Boulez
, conductor

Recorded in: 04/1984, IRCAM, Espace de Projection, Paris (Sinfonia) and 07/1981, Studio 103, Radio France, Paris
Erato YEAR: 1986

Exact Audio Copy V0.99 prebeta 4 from 23. January 2008

EAC extraction logfile from 26. April 2009, 17:23

Pierre Boulez, Orchestre National de France / Luciano Berio: Sinfonia, Eindrucke

Used drive : TSSTcorpCD/DVDW TS-L632D Adapter: 5 ID: 0

Read mode : Secure
Utilize accurate stream : Yes
Defeat audio cache : Yes
Make use of C2 pointers : No

Read offset correction : 6
Overread into Lead-In and Lead-Out : No
Fill up missing offset samples with silence : Yes
Delete leading and trailing silent blocks : No
Null samples used in CRC calculations : Yes
Used interface : Native Win32 interface for Win NT & 2000
Gap handling : Appended to previous track

Used output format : User Defined Encoder
Selected bitrate : 1024 kBit/s
Quality : High
Add ID3 tag : No
Command line compressor : C:\Program Files\FLAC\flac.exe
Additional command line options : -8 -V -T "ARTIST=%a" -T "TITLE=%t" -T "ALBUM=%g" -T "DATE=%y" -T "TRACKNUMBER=%n" -T "GENRE=%m" -T "COMMENT=EAC FLAC -8" %s

TOC of the extracted CD

Track | Start | Length | Start sector | End sector
––––––––––––––––––––––––––––-
1 | 0:00.00 | 6:20.35 | 0 | 28534
2 | 6:20.35 | 5:01.42 | 28535 | 51151
3 | 11:22.02 | 12:26.40 | 51152 | 107141
4 | 23:48.42 | 3:25.48 | 107142 | 122564
5 | 27:14.15 | 7:19.67 | 122565 | 155556
6 | 34:34.07 | 10:15.20 | 155557 | 201701

Track 1

Filename D:\Music\Pierre Boulez\1995 - ERATO 4509-98496-2 (5CD) {Schoenberg, Berio, Carter, Kurtag, Xenakis etc}\CD2\01 - Sinfonia I -.wav

Pre-gap length 0:00:02.00

Peak level 95.3 %
Track quality 100.0 %
Test CRC FBD28A4C
Copy CRC FBD28A4C
Cannot be verified as accurate (confidence 2) [45D4EBBF], AccurateRip returned [3528EB44]
Copy OK

Track 2

Filename D:\Music\Pierre Boulez\1995 - ERATO 4509-98496-2 (5CD) {Schoenberg, Berio, Carter, Kurtag, Xenakis etc}\CD2\02 - Sinfonia II - O King.wav

Pre-gap length 0:00:03.73

Peak level 80.6 %
Track quality 100.0 %
Test CRC F4355B29
Copy CRC F4355B29
Cannot be verified as accurate (confidence 2) [C694FC5B], AccurateRip returned [45ABBFC0]
Copy OK

Track 3

Filename D:\Music\Pierre Boulez\1995 - ERATO 4509-98496-2 (5CD) {Schoenberg, Berio, Carter, Kurtag, Xenakis etc}\CD2\03 - Sinfonia III - In ruhig fliessender Bewegung.wav

Pre-gap length 0:00:03.46

Peak level 100.0 %
Track quality 99.9 %
Test CRC 4317C512
Copy CRC 4317C512
Cannot be verified as accurate (confidence 2) [AB41FBE5], AccurateRip returned [DDAEEA06]
Copy OK

Track 4

Filename D:\Music\Pierre Boulez\1995 - ERATO 4509-98496-2 (5CD) {Schoenberg, Berio, Carter, Kurtag, Xenakis etc}\CD2\04 - Sinfonia IV -.wav

Peak level 40.1 %
Track quality 100.0 %
Test CRC C441741B
Copy CRC C441741B
Cannot be verified as accurate (confidence 2) [F6F1CCBE], AccurateRip returned [84551B25]
Copy OK

Track 5

Filename D:\Music\Pierre Boulez\1995 - ERATO 4509-98496-2 (5CD) {Schoenberg, Berio, Carter, Kurtag, Xenakis etc}\CD2\05 - Sinfonia V -.wav

Pre-gap length 0:00:02.20

Peak level 83.5 %
Track quality 100.0 %
Test CRC 47D7CAEC
Copy CRC 47D7CAEC
Cannot be verified as accurate (confidence 2) [AFD8C64F], AccurateRip returned [3872A956]
Copy OK

Track 6

Filename D:\Music\Pierre Boulez\1995 - ERATO 4509-98496-2 (5CD) {Schoenberg, Berio, Carter, Kurtag, Xenakis etc}\CD2\06 - Eindrucke.wav

Pre-gap length 0:00:10.49

Peak level 73.0 %
Track quality 100.0 %
Test CRC EB8B2F99
Copy CRC EB8B2F99
Cannot be verified as accurate (confidence 2) [62AE291B], AccurateRip returned [A60662F0]
Copy OK

No tracks could be verified as accurate
You may have a different pressing from the one(s) in the database

No errors occurred

End of status report


CD3 - Elliott Carter

01. Concerto for Oboe (1986-1987) [19:57]
Dedicated to Paul Sacher,
world premiere: Zurich, 17.06.1988

Heinz Holliger, oboe

02. Esprit Rude/Esprit Doux (1985) [04:52]
Dedicated to Pierre Boulez,
world premiere: Baden-Baden, 31.03.1985

Sophie Cherrier, flute
Andre Trouttet, clarinet

03. A Mirror on Which to Dwell (1975) - 1. Anaphora [03:40]
04. A Mirror on Which to Dwell (1975) - 2. Argument [02:24]
05. A Mirror on Which to Dwell (1975) - 3. Sandpiper [02:22]
06. A Mirror on Which to Dwell (1975) - 4. Insomnia [03:04]
07. A Mirror on Which to Dwell (1975) - 5. View of the Capitol from the Library of Congress [03:03]
08. A Mirror on Which to Dwell (1975) - 6. O Breath [04:07]
Six poems by Elisabeth Bishop,
for soprano and chamber orchestra,
world premiere: Hunter College Playhouse, New-York, 1976

Phyllis Bryn-Julson, soprano

09. Penthode (1984-1985) [19:23]
for 5 instrumental groups,
dedicated to Ensemble Intercontemporain and Pierre Boulez,
world premiere: Royal Albert Hall, London, 26.07.1985
Ensemble InterContemporain
Pierre Boulez


Recorded in: 12/1987, IRCAM, Espace de Projection, Paris
Erato YEAR: 1990

Exact Audio Copy V0.99 prebeta 4 from 23. January 2008

EAC extraction logfile from 26. April 2009, 18:42

Ensemble Intercontemporain, Soloists, Boulzez / Boulez conducts Carter

Used drive : TSSTcorpCD/DVDW TS-L632D Adapter: 5 ID: 0

Read mode : Secure
Utilize accurate stream : Yes
Defeat audio cache : Yes
Make use of C2 pointers : No

Read offset correction : 6
Overread into Lead-In and Lead-Out : No
Fill up missing offset samples with silence : Yes
Delete leading and trailing silent blocks : No
Null samples used in CRC calculations : Yes
Used interface : Native Win32 interface for Win NT & 2000
Gap handling : Appended to previous track

Used output format : User Defined Encoder
Selected bitrate : 1024 kBit/s
Quality : High
Add ID3 tag : No
Command line compressor : C:\Program Files\FLAC\flac.exe
Additional command line options : -8 -V -T "ARTIST=%a" -T "TITLE=%t" -T "ALBUM=%g" -T "DATE=%y" -T "TRACKNUMBER=%n" -T "GENRE=%m" -T "COMMENT=EAC FLAC -8" %s

TOC of the extracted CD

Track | Start | Length | Start sector | End sector
––––––––––––––––––––––––––––-
1 | 0:00.00 | 19:57.45 | 0 | 89819
2 | 19:57.45 | 4:52.22 | 89820 | 111741
3 | 24:49.67 | 3:40.48 | 111742 | 128289
4 | 28:30.40 | 2:24.67 | 128290 | 139156
5 | 30:55.32 | 2:22.65 | 139157 | 149871
6 | 33:18.22 | 3:04.35 | 149872 | 163706
7 | 36:22.57 | 3:03.13 | 163707 | 177444
8 | 39:25.70 | 4:07.65 | 177445 | 196034
9 | 43:33.60 | 19:23.00 | 196035 | 283259

Track 1

Filename D:\Music\Pierre Boulez\1995 - ERATO 4509-98496-2 (5CD) {Schoenberg, Berio, Carter, Kurtag, Xenakis etc}\CD3\01 - Concerto for Oboe (1986-1987).wav

Pre-gap length 0:00:02.00

Peak level 100.0 %
Track quality 99.9 %
Test CRC D0C60267
Copy CRC D0C60267
Accurately ripped (confidence 1) [99E17F36]
Copy OK

Track 2

Filename D:\Music\Pierre Boulez\1995 - ERATO 4509-98496-2 (5CD) {Schoenberg, Berio, Carter, Kurtag, Xenakis etc}\CD3\02 - Esprit Rude - Esprit Doux (1985).wav

Pre-gap length 0:00:08.20

Peak level 36.4 %
Track quality 100.0 %
Test CRC 77835099
Copy CRC 77835099
Accurately ripped (confidence 1) [2B2FC357]
Copy OK

Track 3

Filename D:\Music\Pierre Boulez\1995 - ERATO 4509-98496-2 (5CD) {Schoenberg, Berio, Carter, Kurtag, Xenakis etc}\CD3\03 - A Mirror on Which to Dwell (1975) - 1 Anaphora.wav

Pre-gap length 0:00:04.86

Peak level 37.2 %
Track quality 100.0 %
Test CRC F9E3FCCC
Copy CRC F9E3FCCC
Accurately ripped (confidence 1) [41731C6C]
Copy OK

Track 4

Filename D:\Music\Pierre Boulez\1995 - ERATO 4509-98496-2 (5CD) {Schoenberg, Berio, Carter, Kurtag, Xenakis etc}\CD3\04 - A Mirror on Which to Dwell - 2 Argument.wav

Pre-gap length 0:00:04.26

Peak level 38.2 %
Track quality 100.0 %
Test CRC 038DC442
Copy CRC 038DC442
Accurately ripped (confidence 1) [BEFFA1D1]
Copy OK

Track 5

Filename D:\Music\Pierre Boulez\1995 - ERATO 4509-98496-2 (5CD) {Schoenberg, Berio, Carter, Kurtag, Xenakis etc}\CD3\05 - A Mirror on Which to Dwell - 3 Sandpiper.wav

Pre-gap length 0:00:05.13

Peak level 28.9 %
Track quality 100.0 %
Test CRC 1B57137B
Copy CRC 1B57137B
Accurately ripped (confidence 1) [1952C997]
Copy OK

Track 6

Filename D:\Music\Pierre Boulez\1995 - ERATO 4509-98496-2 (5CD) {Schoenberg, Berio, Carter, Kurtag, Xenakis etc}\CD3\06 - A Mirror on Which to Dwell - 4 Insomnia.wav

Pre-gap length 0:00:04.20

Peak level 37.3 %
Track quality 100.0 %
Test CRC E4DCB52F
Copy CRC E4DCB52F
Accurately ripped (confidence 1) [C89682C4]
Copy OK

Track 7

Filename D:\Music\Pierre Boulez\1995 - ERATO 4509-98496-2 (5CD) {Schoenberg, Berio, Carter, Kurtag, Xenakis etc}\CD3\07 - A Mirror on Which to Dwell - 5 View of the Capitol from the Library of Congress.wav

Pre-gap length 0:00:06.56

Peak level 64.4 %
Track quality 100.0 %
Test CRC F8D7C53E
Copy CRC F8D7C53E
Accurately ripped (confidence 1) [D6C44457]
Copy OK

Track 8

Filename D:\Music\Pierre Boulez\1995 - ERATO 4509-98496-2 (5CD) {Schoenberg, Berio, Carter, Kurtag, Xenakis etc}\CD3\08 - A Mirror on Which to Dwell - 6 O Breath.wav

Pre-gap length 0:00:03.06

Peak level 23.2 %
Track quality 100.0 %
Test CRC C5172CD7
Copy CRC C5172CD7
Accurately ripped (confidence 1) [32A4F88C]
Copy OK

Track 9

Filename D:\Music\Pierre Boulez\1995 - ERATO 4509-98496-2 (5CD) {Schoenberg, Berio, Carter, Kurtag, Xenakis etc}\CD3\09 - Penthode (1984-1985).wav

Pre-gap length 0:00:07.06

Peak level 100.0 %
Track quality 100.0 %
Test CRC A7D086A6
Copy CRC A7D086A6
Accurately ripped (confidence 1) [5D9B9512]
Copy OK

All tracks accurately ripped

No errors occurred

End of status report


CD4 - Gyorgy Kurtag, Harrison Birtwistle, Gerard Grisey

01. Gyorgy Kurtag / Messages de Feu Demoiselle R. V. Troussova (1976-1980) [25:52]

21 poems by Rimma Dalos, op. 17, for soprano and chamber ensemble,
sung in the original Russian,
world premiere: 14.01.1981, Palais des Arts, Paris

Adrienne Csengery, soprano
Marta Fabian, cymbalum

02. Harrison Birtwistle / …AGM… [27:10]

for 16 voices and 3 instrumental groups,
dedicated to Nicholas Snowman,
world premiere: 09.04.1979, Theatre de la Ville, Paris

Chœur John Alldis

03. Gerard Grisey / Modulations (1978) [18:36]

for 33 musicians,
world premiere: 09.03.1978, Theatre de la Ville, Paris

Ensemble InterContemporain,
Pierre Boulez
, conductor

Recorded in: 04/1983, 06/1982 (…AGM…), IRCAM, Espace de Projection, Paris
Erato YEAR: 1984

Exact Audio Copy V0.99 prebeta 4 from 23. January 2008

EAC extraction logfile from 26. April 2009, 19:19

Ensemble Intercontemporain, Soloists, Pierre Boulez / Boulez Conducts, Disc 4 (Erato 4509-98496-2)

Used drive : TSSTcorpCD/DVDW TS-L632D Adapter: 5 ID: 0

Read mode : Secure
Utilize accurate stream : Yes
Defeat audio cache : Yes
Make use of C2 pointers : No

Read offset correction : 6
Overread into Lead-In and Lead-Out : No
Fill up missing offset samples with silence : Yes
Delete leading and trailing silent blocks : No
Null samples used in CRC calculations : Yes
Used interface : Native Win32 interface for Win NT & 2000
Gap handling : Appended to previous track

Used output format : User Defined Encoder
Selected bitrate : 1024 kBit/s
Quality : High
Add ID3 tag : No
Command line compressor : C:\Program Files\FLAC\flac.exe
Additional command line options : -8 -V -T "ARTIST=%a" -T "TITLE=%t" -T "ALBUM=%g" -T "DATE=%y" -T "TRACKNUMBER=%n" -T "GENRE=%m" -T "COMMENT=EAC FLAC -8" %s

TOC of the extracted CD

Track | Start | Length | Start sector | End sector
––––––––––––––––––––––––––––-
1 | 0:00.00 | 25:52.52 | 0 | 116451
2 | 25:52.52 | 27:10.08 | 116452 | 238709
3 | 53:02.60 | 18:36.12 | 238710 | 322421

Track 1

Filename D:\Music\Pierre Boulez\1995 - ERATO 4509-98496-2 (5CD) {Schoenberg, Berio, Carter, Kurtag, Xenakis etc}\CD4\01 - Gyorgy Kurtag , Messages de Feu Demoiselle R. V. Troussova.wav

Pre-gap length 0:00:02.00

Peak level 63.9 %
Track quality 100.0 %
Test CRC 45A2C3A3
Copy CRC 45A2C3A3
Track not present in AccurateRip database
Copy OK

Track 2

Filename D:\Music\Pierre Boulez\1995 - ERATO 4509-98496-2 (5CD) {Schoenberg, Berio, Carter, Kurtag, Xenakis etc}\CD4\02 - Harrison Birtwislte , …AGM….wav

Pre-gap length 0:00:08.80

Peak level 57.4 %
Track quality 99.9 %
Test CRC B22BB4D4
Copy CRC B22BB4D4
Track not present in AccurateRip database
Copy OK

Track 3

Filename D:\Music\Pierre Boulez\1995 - ERATO 4509-98496-2 (5CD) {Schoenberg, Berio, Carter, Kurtag, Xenakis etc}\CD4\03 - Gerard Grisey , Modulations.wav

Pre-gap length 0:00:08.40

Peak level 76.7 %
Track quality 100.0 %
Test CRC 969D2EE9
Copy CRC 969D2EE9
Track not present in AccurateRip database
Copy OK

None of the tracks are present in the AccurateRip database

No errors occurred

End of status report


CD5 - Iannis Xenakis, Hugues Dufourt, Brian Ferneyhough

01. Iannis Xenakis / Jalons (1986) [14:39]
Dedicated to Ensemble Intercontemporain and Pierre Boulez,
world premiere: 26.01.1987, Theatre de la Ville, Paris

02. Hugues Dufourt / Antiphusis (1978) [18:14]
for leading flute and chamber orchestra,
world premiere: 07.07.1978, Rencontres Internationales d'Art contemporain, La Rochelle

Istvan Matuz, flute

03. Brian Ferneyhough / Funerailles: Version I (1977) [11:10]
world premiere: July 1977

04. Brian Ferneyhough / Funerailles: Version II (1980) [13:31]
world premiere: June 29th, 1980

Ensemble Intercontemporain
Pierre Boulez
, conductor

Recorded in: 07/1990 (01), 09/1982 (02), 02/1984 (03,04), IRCAM, Espace de Projection, Paris
Erato YEAR: 1984 (02,03,04), 1992 (01)

Exact Audio Copy V0.99 prebeta 4 from 23. January 2008

EAC extraction logfile from 26. April 2009, 19:59

Ensemble Intercontemporain, Pierre Boulez / Boulez Conducts, Disc 5 (Erato 4509-98496-2)

Used drive : TSSTcorpCD/DVDW TS-L632D Adapter: 5 ID: 0

Read mode : Secure
Utilize accurate stream : Yes
Defeat audio cache : Yes
Make use of C2 pointers : No

Read offset correction : 6
Overread into Lead-In and Lead-Out : No
Fill up missing offset samples with silence : Yes
Delete leading and trailing silent blocks : No
Null samples used in CRC calculations : Yes
Used interface : Native Win32 interface for Win NT & 2000
Gap handling : Appended to previous track

Used output format : User Defined Encoder
Selected bitrate : 1024 kBit/s
Quality : High
Add ID3 tag : No
Command line compressor : C:\Program Files\FLAC\flac.exe
Additional command line options : -8 -V -T "ARTIST=%a" -T "TITLE=%t" -T "ALBUM=%g" -T "DATE=%y" -T "TRACKNUMBER=%n" -T "GENRE=%m" -T "COMMENT=EAC FLAC -8" %s

TOC of the extracted CD

Track | Start | Length | Start sector | End sector
––––––––––––––––––––––––––––-
1 | 0:00.00 | 14:39.55 | 0 | 65979
2 | 14:39.55 | 18:14.00 | 65980 | 148029
3 | 32:53.55 | 11:10.37 | 148030 | 198316
4 | 44:04.17 | 13:31.60 | 198317 | 259201

Track 1

Filename D:\Music\Pierre Boulez\1995 - ERATO 4509-98496-2 (5CD) {Schoenberg, Berio, Carter, Kurtag, Xenakis etc}\CD5\01 - Iannis Xenakis , Jalons (1986).wav

Pre-gap length 0:00:02.00

Peak level 66.8 %
Track quality 100.0 %
Test CRC E84B06CE
Copy CRC E84B06CE
Accurately ripped (confidence 1) [96552207]
Copy OK

Track 2

Filename D:\Music\Pierre Boulez\1995 - ERATO 4509-98496-2 (5CD) {Schoenberg, Berio, Carter, Kurtag, Xenakis etc}\CD5\02 - Hugues Dufourt , Antiphusis (1978).wav

Pre-gap length 0:00:06.04

Peak level 79.3 %
Track quality 100.0 %
Test CRC A54B118D
Copy CRC A54B118D
Accurately ripped (confidence 1) [993C9F75]
Copy OK

Track 3

Filename D:\Music\Pierre Boulez\1995 - ERATO 4509-98496-2 (5CD) {Schoenberg, Berio, Carter, Kurtag, Xenakis etc}\CD5\03 - Brian Ferneyhough , Funerailles Version I (1977).wav

Pre-gap length 0:00:09.04

Peak level 51.0 %
Track quality 100.0 %
Test CRC 6F5D7C71
Copy CRC 6F5D7C71
Accurately ripped (confidence 1) [15C236D9]
Copy OK

Track 4

Filename D:\Music\Pierre Boulez\1995 - ERATO 4509-98496-2 (5CD) {Schoenberg, Berio, Carter, Kurtag, Xenakis etc}\CD5\04 - Brian Ferneyhough , Funerailles Version II (1980).wav

Peak level 52.0 %
Track quality 100.0 %
Test CRC FC28ABFC
Copy CRC FC28ABFC
Accurately ripped (confidence 1) [00F5942A]
Copy OK

All tracks accurately ripped

No errors occurred

End of status report


Download Boulez Conducts: Schoenberg, Berio, Carter, Kurtag, Xenakis [5CD Box Set] (1995):


Thanks to the original Publicist "kapump"

If you'll find that my links are dead please let me know through the Private Messages.

Please DO NOT MIRROR