Archer S09E04

Posted By: Tavaz
1080p (FullHD) / WEB-DL IMDb
Archer S09E04

Archer S09E04
WEB-DL | MKV | 1920x1080 | English | H264 @ 4876 kbps | E-AC-3 @ 640 kbps | 20 min 46 s | 820 MiB
Subtitles: English
Genre: Animation, Drama, Comedy

Sterling Archer is the world's most daunting spy. He works for ISIS, a spy agency run by his mother. In between dealing with his boss and his co-workers - one of whom is his ex-girlfriend - Archer manages to annoy or seduce everyone that crosses his path. His antics are only excusable because at the end of the day, he still somehow always manages to thwart whatever crises was threatening mankind.

878eca88935a4dbf84b8472bee8058cf.mkv (820.1 MB)



General
Unique ID : 284305654932671590830868514905943864536 (0xD5E34704F44900273C8427E37CE274D8)
Complete name : ./878eca88935a4dbf84b8472bee8058cf.mkv
Format : Matroska
Format version : Version 4 / Version 2
File size : 820 MiB
Duration : 20 min 46 s
Overall bit rate mode : Variable
Overall bit rate : 5 519 kb/s
Encoded date : UTC 2018-05-17 07:48:48
Writing application : mkvmerge v23.0.0 ('The Bride Said No') 64-bit
Writing library : libebml v1.3.6 + libmatroska v1.4.9

Video
ID : 1
Format : AVC
Format/Info : Advanced Video Codec
Format profile : High@L4
Format settings : CABAC / 4 Ref Frames
Format settings, CABAC : Yes
Format settings, RefFrames : 4 frames
Codec ID : V_MPEG4/ISO/AVC
Duration : 20 min 46 s
Bit rate mode : Variable
Bit rate : 4 877 kb/s
Maximum bit rate : 15.0 Mb/s
Width : 1 920 pixels
Height : 1 080 pixels
Display aspect ratio : 16:9
Frame rate mode : Constant
Frame rate : 23.976 (24000/1001) FPS
Color space : YUV
Chroma subsampling : 4:2:0
Bit depth : 8 bits
Scan type : Progressive
Bits/(Pixel*Frame) : 0.098
Stream size : 725 MiB (88%)
Language : English
Default : Yes
Forced : No
Color range : Limited
Color primaries : BT.709
Transfer characteristics : BT.709
Matrix coefficients : BT.709

Audio
ID : 2
Format : E-AC-3
Format/Info : Enhanced Audio Coding 3
Format settings, Endianness : Big
Codec ID : A_EAC3
Duration : 20 min 46 s
Bit rate mode : Constant
Bit rate : 640 kb/s
Channel(s) : 6 channels
Channel positions : Front: L C R, Side: L R, LFE
Sampling rate : 48.0 kHz
Frame rate : 187.500 FPS (256 SPF)
Compression mode : Lossy
Delay relative to video : 16 ms
Stream size : 95.1 MiB (12%)
Language : English
Service kind : Complete Main
Default : Yes
Forced : No

Text
ID : 3
Format : UTF-8
Codec ID : S_TEXT/UTF8
Codec ID/Info : UTF-8 Plain Text
Duration : 20 min 41 s
Bit rate : 93 b/s
Count of elements : 488
Stream size : 14.2 KiB (0%)
Language : English
Default : No
Forced : No





Archer S09E04


Archer S09E04


Archer S09E04


Archer S09E04


Archer S09E04

All episodes