Black Clover S01E37

Posted By: Tavaz
1080p (FullHD) / WEBRip IMDb
Black Clover S01E37

Black Clover S01E37
WEBRip | MKV | 1920x1080 | Japanese | H264 @ 6740 kbps | AAC @ 128 kbps | 23 min 55 s | 1.15 GiB
Subtitles: Portuguese, German, English, French, Spanish, Russian, Arabic, Italian
Genre: Animation, Comedy

Asta and Yuno were abandoned together at the same church, and have been inseparable since. As children, they promised that they would compete against each other to see who would become the next Emperor Magus. However, as they grew up, some differences between them became plain. Yuno was a genius with magic, with amazing power and control, while Asta could not use magic at all, and tried to make up for his lack by training physically. When they received their Grimoires at age 15, Yuno got a spectacular book with a four-leaf clover (most people receive a three-leaf-clover), while Asta received nothing at all. However, when Yuno was threatened, the truth about Asta's power was revealed, he received a five-leaf clover Grimoire, a "black clover"! Now the two friends are heading out in the world, both seeking the same goal!

e4d61ee24f754b95bbd0acd00a1ad16e.mkv (1.1 GB)



General
Unique ID : 234066881499194536283818738440505892031 (0xB017A44058F0AD61948B7050BADB9CBF)
Complete name : ./e4d61ee24f754b95bbd0acd00a1ad16e.mkv
Format : Matroska
Format version : Version 4 / Version 2
File size : 1.15 GiB
Duration : 23 min 55 s
Overall bit rate : 6 863 kb/s
Movie name : Black Clover Episode 37 - Watch on Crunchyroll
Encoded date : UTC 2018-06-19 21:14:46
Writing application : mkvmerge v12.0.0 ('Trust / Lust') 64bit
Writing library : libebml v1.3.4 + libmatroska v1.4.5

Video
ID : 1
Format : AVC
Format/Info : Advanced Video Codec
Format profile : High@L4
Format settings : CABAC / 4 Ref Frames
Format settings, CABAC : Yes
Format settings, RefFrames : 4 frames
Codec ID : V_MPEG4/ISO/AVC
Duration : 23 min 53 s
Bit rate : 6 740 kb/s
Width : 1 920 pixels
Height : 1 080 pixels
Display aspect ratio : 16:9
Frame rate mode : Constant
Frame rate : 23.976 (24000/1001) FPS
Color space : YUV
Chroma subsampling : 4:2:0
Bit depth : 8 bits
Scan type : Progressive
Bits/(Pixel*Frame) : 0.136
Stream size : 1.13 GiB (98%)
Writing library : x264 core 142
Encoding settings : cabac=1 / ref=4 / deblock=1:1:1 / analyse=0x3:0x113 / me=umh / subme=8 / psy=1 / psy_rd=0.40:0.00 / mixed_ref=1 / me_range=16 / chroma_me=1 / trellis=1 / 8x8dct=1 / cqm=0 / deadzone=21,11 / fast_pskip=1 / chroma_qp_offset=-2 / threads=12 / lookahead_threads=2 / sliced_threads=0 / nr=0 / decimate=1 / interlaced=0 / bluray_compat=0 / constrained_intra=0 / bframes=3 / b_pyramid=2 / b_adapt=2 / b_bias=0 / direct=3 / weightb=1 / open_gop=0 / weightp=2 / keyint=48 / keyint_min=24 / scenecut=40 / intra_refresh=0 / rc_lookahead=48 / rc=crf / mbtree=1 / crf=15.0 / qcomp=0.60 / qpmin=0 / qpmax=69 / qpstep=4 / vbv_maxrate=8000 / vbv_bufsize=12000 / crf_max=0.0 / nal_hrd=none / filler=0 / ip_ratio=1.40 / aq=1:0.60
Language : Japanese
Default : Yes
Forced : No

Audio
ID : 2
Format : AAC
Format/Info : Advanced Audio Codec
Format profile : LC
Codec ID : A_AAC-2
Duration : 23 min 54 s
Bit rate : 128 kb/s
Channel(s) : 2 channels
Channel positions : Front: L R
Sampling rate : 44.1 kHz
Frame rate : 43.066 FPS (1024 SPF)
Compression mode : Lossy
Delay relative to video : -83 ms
Stream size : 21.9 MiB (2%)
Language : Japanese
Default : Yes
Forced : No

Text #1
ID : 3
Format : ASS
Codec ID : S_TEXT/ASS
Codec ID/Info : Advanced Sub Station Alpha
Duration : 23 min 47 s
Bit rate : 136 b/s
Count of elements : 354
Compression mode : Lossless
Stream size : 23.8 KiB (0%)
Title : [English (US)]
Language : English
Default : Yes
Forced : No

Text #2
ID : 4
Format : ASS
Codec ID : S_TEXT/ASS
Codec ID/Info : Advanced Sub Station Alpha
Duration : 23 min 49 s
Bit rate : 117 b/s
Count of elements : 327
Compression mode : Lossless
Stream size : 20.4 KiB (0%)
Title : [Espanol]
Language : Spanish
Default : No
Forced : No

Text #3
ID : 5
Format : ASS
Codec ID : S_TEXT/ASS
Codec ID/Info : Advanced Sub Station Alpha
Duration : 23 min 49 s
Bit rate : 119 b/s
Count of elements : 330
Compression mode : Lossless
Stream size : 20.8 KiB (0%)
Title : [Espanol (Espana)]
Language : Spanish
Default : No
Forced : No

Text #4
ID : 6
Format : ASS
Codec ID : S_TEXT/ASS
Codec ID/Info : Advanced Sub Station Alpha
Duration : 23 min 49 s
Bit rate : 138 b/s
Count of elements : 318
Compression mode : Lossless
Stream size : 24.2 KiB (0%)
Title : [Francais (France)]
Language : French
Default : No
Forced : No

Text #5
ID : 7
Format : ASS
Codec ID : S_TEXT/ASS
Codec ID/Info : Advanced Sub Station Alpha
Duration : 23 min 47 s
Bit rate : 149 b/s
Count of elements : 354
Compression mode : Lossless
Stream size : 26.1 KiB (0%)
Title : [Portugues (Brasil)]
Language : Portuguese
Default : No
Forced : No

Text #6
ID : 8
Format : ASS
Codec ID : S_TEXT/ASS
Codec ID/Info : Advanced Sub Station Alpha
Duration : 23 min 47 s
Bit rate : 165 b/s
Count of elements : 351
Compression mode : Lossless
Stream size : 28.9 KiB (0%)
Title : [Arabic]
Language : Arabic
Default : No
Forced : No

Text #7
ID : 9
Format : ASS
Codec ID : S_TEXT/ASS
Codec ID/Info : Advanced Sub Station Alpha
Duration : 23 min 47 s
Bit rate : 148 b/s
Count of elements : 362
Compression mode : Lossless
Stream size : 25.8 KiB (0%)
Title : [Italiano]
Language : Italian
Default : No
Forced : No

Text #8
ID : 10
Format : ASS
Codec ID : S_TEXT/ASS
Codec ID/Info : Advanced Sub Station Alpha
Duration : 23 min 47 s
Bit rate : 142 b/s
Count of elements : 336
Compression mode : Lossless
Stream size : 24.8 KiB (0%)
Title : [Deutsch]
Language : German
Default : No
Forced : No

Text #9
ID : 11
Format : ASS
Codec ID : S_TEXT/ASS
Codec ID/Info : Advanced Sub Station Alpha
Duration : 23 min 47 s
Bit rate : 225 b/s
Count of elements : 413
Compression mode : Lossless
Stream size : 39.2 KiB (0%)
Title : [Russian]
Language : Russian
Default : No
Forced : No





Black Clover S01E37


Black Clover S01E37


Black Clover S01E37


Black Clover S01E37


Black Clover S01E37

All episodes