Black Clover S01E39

Posted By: Tavaz
720p (HD) / WEBRip IMDb
Black Clover S01E39

Black Clover S01E39
WEBRip | MKV | 1280x720 | Japanese | H264 @ 2325 kbps | AAC @ 127 kbps | 23 min 55 s | 420 MiB
Subtitles: Portuguese, German, English, French, Spanish, Russian, Arabic, Italian
Genre: Animation, Comedy

Asta and Yuno were abandoned together at the same church, and have been inseparable since. As children, they promised that they would compete against each other to see who would become the next Emperor Magus. However, as they grew up, some differences between them became plain. Yuno was a genius with magic, with amazing power and control, while Asta could not use magic at all, and tried to make up for his lack by training physically. When they received their Grimoires at age 15, Yuno got a spectacular book with a four-leaf clover (most people receive a three-leaf-clover), while Asta received nothing at all. However, when Yuno was threatened, the truth about Asta's power was revealed, he received a five-leaf clover Grimoire, a "black clover"! Now the two friends are heading out in the world, both seeking the same goal!

2fae6c8ad5f74667b8ee2b9c154c6332.mkv (420.1 MB)



General
Unique ID : 217015087741742503637946692514357950059 (0xA34395E900479C8AB4A28E715407B66B)
Complete name : ./2fae6c8ad5f74667b8ee2b9c154c6332.mkv
Format : Matroska
Format version : Version 4 / Version 2
File size : 420 MiB
Duration : 23 min 55 s
Overall bit rate : 2 454 kb/s
Movie name : Black Clover Episode 39 - Watch on Crunchyroll
Encoded date : UTC 2018-07-05 18:35:45
Writing application : mkvmerge v12.0.0 ('Trust / Lust') 64bit
Writing library : libebml v1.3.4 + libmatroska v1.4.5

Video
ID : 1
Format : AVC
Format/Info : Advanced Video Codec
Format profile : High@L4
Format settings : CABAC / 6 Ref Frames
Format settings, CABAC : Yes
Format settings, RefFrames : 6 frames
Codec ID : V_MPEG4/ISO/AVC
Duration : 23 min 53 s
Bit rate : 2 325 kb/s
Width : 1 280 pixels
Height : 720 pixels
Display aspect ratio : 16:9
Frame rate mode : Constant
Frame rate : 23.976 (24000/1001) FPS
Color space : YUV
Chroma subsampling : 4:2:0
Bit depth : 8 bits
Scan type : Progressive
Bits/(Pixel*Frame) : 0.105
Stream size : 397 MiB (95%)
Writing library : x264 core 142
Encoding settings : cabac=1 / ref=6 / deblock=1:1:1 / analyse=0x3:0x113 / me=umh / subme=8 / psy=1 / psy_rd=0.40:0.00 / mixed_ref=1 / me_range=16 / chroma_me=1 / trellis=1 / 8x8dct=1 / cqm=0 / deadzone=21,11 / fast_pskip=1 / chroma_qp_offset=-2 / threads=10 / lookahead_threads=1 / sliced_threads=0 / nr=0 / decimate=1 / interlaced=0 / bluray_compat=0 / constrained_intra=0 / bframes=3 / b_pyramid=2 / b_adapt=2 / b_bias=0 / direct=3 / weightb=1 / open_gop=0 / weightp=2 / keyint=48 / keyint_min=24 / scenecut=40 / intra_refresh=0 / rc_lookahead=48 / rc=crf / mbtree=1 / crf=15.0 / qcomp=0.60 / qpmin=0 / qpmax=69 / qpstep=4 / vbv_maxrate=4000 / vbv_bufsize=6000 / crf_max=0.0 / nal_hrd=none / filler=0 / ip_ratio=1.40 / aq=1:0.60
Language : Japanese
Default : Yes
Forced : No

Audio
ID : 2
Format : AAC
Format/Info : Advanced Audio Codec
Format profile : LC
Codec ID : A_AAC-2
Duration : 23 min 53 s
Bit rate : 128 kb/s
Channel(s) : 2 channels
Channel positions : Front: L R
Sampling rate : 44.1 kHz
Frame rate : 43.066 FPS (1024 SPF)
Compression mode : Lossy
Delay relative to video : -83 ms
Stream size : 21.9 MiB (5%)
Language : Japanese
Default : Yes
Forced : No

Text #1
ID : 3
Format : ASS
Codec ID : S_TEXT/ASS
Codec ID/Info : Advanced Sub Station Alpha
Duration : 23 min 47 s
Bit rate : 144 b/s
Count of elements : 348
Compression mode : Lossless
Stream size : 25.2 KiB (0%)
Title : [English (US)]
Language : English
Default : Yes
Forced : No

Text #2
ID : 4
Format : ASS
Codec ID : S_TEXT/ASS
Codec ID/Info : Advanced Sub Station Alpha
Duration : 23 min 49 s
Bit rate : 118 b/s
Count of elements : 313
Compression mode : Lossless
Stream size : 20.6 KiB (0%)
Title : [Espanol (Espana)]
Language : Spanish
Default : No
Forced : No

Text #3
ID : 5
Format : ASS
Codec ID : S_TEXT/ASS
Codec ID/Info : Advanced Sub Station Alpha
Duration : 23 min 47 s
Bit rate : 143 b/s
Count of elements : 320
Compression mode : Lossless
Stream size : 25.0 KiB (0%)
Title : [Francais (France)]
Language : French
Default : No
Forced : No

Text #4
ID : 6
Format : ASS
Codec ID : S_TEXT/ASS
Codec ID/Info : Advanced Sub Station Alpha
Duration : 23 min 47 s
Bit rate : 156 b/s
Count of elements : 347
Compression mode : Lossless
Stream size : 27.3 KiB (0%)
Title : [Portugues (Brasil)]
Language : Portuguese
Default : No
Forced : No

Text #5
ID : 7
Format : ASS
Codec ID : S_TEXT/ASS
Codec ID/Info : Advanced Sub Station Alpha
Duration : 23 min 47 s
Bit rate : 174 b/s
Count of elements : 342
Compression mode : Lossless
Stream size : 30.4 KiB (0%)
Title : [Arabic]
Language : Arabic
Default : No
Forced : No

Text #6
ID : 8
Format : ASS
Codec ID : S_TEXT/ASS
Codec ID/Info : Advanced Sub Station Alpha
Duration : 23 min 47 s
Bit rate : 155 b/s
Count of elements : 357
Compression mode : Lossless
Stream size : 27.0 KiB (0%)
Title : [Italiano]
Language : Italian
Default : No
Forced : No

Text #7
ID : 9
Format : ASS
Codec ID : S_TEXT/ASS
Codec ID/Info : Advanced Sub Station Alpha
Duration : 23 min 47 s
Bit rate : 145 b/s
Count of elements : 329
Compression mode : Lossless
Stream size : 25.4 KiB (0%)
Title : [Deutsch]
Language : German
Default : No
Forced : No

Text #8
ID : 10
Format : ASS
Codec ID : S_TEXT/ASS
Codec ID/Info : Advanced Sub Station Alpha
Duration : 23 min 49 s
Bit rate : 226 b/s
Count of elements : 375
Compression mode : Lossless
Stream size : 39.5 KiB (0%)
Title : [Russian]
Language : Russian
Default : No
Forced : No





Black Clover S01E39


Black Clover S01E39


Black Clover S01E39


Black Clover S01E39


Black Clover S01E39

All episodes