Bunsen is a Beast S01E31

Posted By: Tavaz
720p (HD) / WEB-DL IMDb
Bunsen is a Beast S01E31

Bunsen is a Beast S01E31
WEB-DL | MKV | 1280x720 | English | H264 @ 1739 kbps | AAC @ 127 kbps | 11 min 44 s | 157 MiB
Subtitles: English
Genre: Animation, Comedy

A beast named Bunsen, who is the first beast in his human school, and Mikey Monroe, his human friend, try to navigate through school life when a girl named Amanda wants Bunsen gone so that his kind will suffer from extinction.

bcd8c3219d2143e6bb6a32b6cb640362.mkv (157.0 MB)



General
Unique ID : 186437410435241366257097655459207916087 (0x8C428A05CEDF2FF39188A26E099B2A37)
Complete name : ./bcd8c3219d2143e6bb6a32b6cb640362.mkv
Format : Matroska
Format version : Version 4 / Version 2
File size : 157 MiB
Duration : 11 min 44 s
Overall bit rate : 1 870 kb/s
Encoded date : UTC 2018-01-12 04:33:49
Writing application : mkvmerge v18.0.0 ('Apricity') 64-bit
Writing library : libebml v1.3.5 + libmatroska v1.4.8

Video
ID : 1
Format : AVC
Format/Info : Advanced Video Codec
Format profile : High@L4
Format settings : CABAC / 4 Ref Frames
Format settings, CABAC : Yes
Format settings, RefFrames : 4 frames
Codec ID : V_MPEG4/ISO/AVC
Duration : 11 min 44 s
Bit rate : 1 740 kb/s
Width : 1 280 pixels
Height : 720 pixels
Display aspect ratio : 16:9
Frame rate mode : Constant
Frame rate : 23.976 (24000/1001) FPS
Color space : YUV
Chroma subsampling : 4:2:0
Bit depth : 8 bits
Scan type : Progressive
Bits/(Pixel*Frame) : 0.079
Stream size : 146 MiB (93%)
Writing library : x264 core 148
Encoding settings : cabac=1 / ref=4 / deblock=1:0:0 / analyse=0x3:0x113 / me=umh / subme=10 / psy=1 / psy_rd=1.00:0.15 / mixed_ref=1 / me_range=16 / chroma_me=1 / trellis=2 / 8x8dct=1 / cqm=0 / deadzone=21,11 / fast_pskip=1 / chroma_qp_offset=-3 / threads=14 / lookahead_threads=4 / sliced_threads=0 / nr=0 / decimate=1 / interlaced=0 / bluray_compat=0 / constrained_intra=0 / bframes=3 / b_pyramid=0 / b_adapt=2 / b_bias=0 / direct=3 / weightb=1 / open_gop=0 / weightp=2 / keyint=48 / keyint_min=4 / scenecut=0 / intra_refresh=0 / rc_lookahead=48 / rc=crf / mbtree=1 / crf=19.0 / qcomp=0.75 / qpmin=10 / qpmax=51 / qpstep=4 / vbv_maxrate=3000 / vbv_bufsize=6000 / crf_max=0.0 / nal_hrd=none / filler=0 / ip_ratio=1.40 / aq=1:0.80
Language : English
Default : Yes
Forced : No

Audio
ID : 2
Format : AAC
Format/Info : Advanced Audio Codec
Format profile : LC
Codec ID : A_AAC-2
Duration : 11 min 44 s
Bit rate : 128 kb/s
Channel(s) : 2 channels
Channel positions : Front: L R
Sampling rate : 48.0 kHz
Frame rate : 46.875 FPS (1024 SPF)
Compression mode : Lossy
Stream size : 10.7 MiB (7%)
Language : English
Default : Yes
Forced : No

Text
ID : 3
Format : UTF-8
Codec ID : S_TEXT/UTF8
Codec ID/Info : UTF-8 Plain Text
Duration : 11 min 37 s
Bit rate : 110 b/s
Count of elements : 312
Stream size : 9.44 KiB (0%)
Language : English
Default : No
Forced : No





Bunsen is a Beast S01E31


Bunsen is a Beast S01E31


Bunsen is a Beast S01E31


Bunsen is a Beast S01E31


Bunsen is a Beast S01E31

All episodes