Bunsen is a Beast S01E39

Posted By: Tavaz
1080p (FullHD) / WEB-DL IMDb
Bunsen is a Beast S01E39

Bunsen is a Beast S01E39
WEB-DL | MKV | 1920x1080 | English | H264 @ 2880 kbps | AAC @ 127 kbps | 11 min 43 s | 252 MiB
Subtitles: English
Genre: Animation, Comedy

A beast named Bunsen, who is the first beast in his human school, and Mikey Monroe, his human friend, try to navigate through school life when a girl named Amanda wants Bunsen gone so that his kind will suffer from extinction.

da3d51c9d4ff4556beecdd93831eba84.mkv (252.4 MB)



General
Unique ID : 100242160511599626954130514379982156910 (0x4B69F017B847E6C70BDBD32E15D2B46E)
Complete name : ./da3d51c9d4ff4556beecdd93831eba84.mkv
Format : Matroska
Format version : Version 4 / Version 2
File size : 252 MiB
Duration : 11 min 43 s
Overall bit rate : 3 011 kb/s
Encoded date : UTC 2018-02-12 04:33:23
Writing application : mkvmerge v20.0.0 ('I Am The Sun') 32-bit
Writing library : libebml v1.3.5 + libmatroska v1.4.8

Video
ID : 1
Format : AVC
Format/Info : Advanced Video Codec
Format profile : High@L4
Format settings : CABAC / 4 Ref Frames
Format settings, CABAC : Yes
Format settings, RefFrames : 4 frames
Codec ID : V_MPEG4/ISO/AVC
Duration : 11 min 42 s
Bit rate : 2 881 kb/s
Width : 1 920 pixels
Height : 1 080 pixels
Display aspect ratio : 16:9
Frame rate mode : Constant
Frame rate : 23.976 (24000/1001) FPS
Color space : YUV
Chroma subsampling : 4:2:0
Bit depth : 8 bits
Scan type : Progressive
Bits/(Pixel*Frame) : 0.058
Stream size : 241 MiB (96%)
Writing library : x264 core 148
Encoding settings : cabac=1 / ref=4 / deblock=1:0:0 / analyse=0x3:0x113 / me=umh / subme=10 / psy=1 / psy_rd=1.00:0.15 / mixed_ref=1 / me_range=32 / chroma_me=1 / trellis=2 / 8x8dct=1 / cqm=0 / deadzone=21,11 / fast_pskip=1 / chroma_qp_offset=-3 / threads=24 / lookahead_threads=6 / sliced_threads=0 / nr=0 / decimate=1 / interlaced=0 / bluray_compat=0 / constrained_intra=0 / bframes=3 / b_pyramid=0 / b_adapt=2 / b_bias=0 / direct=3 / weightb=1 / open_gop=0 / weightp=2 / keyint=48 / keyint_min=4 / scenecut=0 / intra_refresh=0 / rc_lookahead=48 / rc=crf / mbtree=1 / crf=19.0 / qcomp=0.75 / qpmin=10 / qpmax=51 / qpstep=4 / vbv_maxrate=5000 / vbv_bufsize=10000 / crf_max=0.0 / nal_hrd=none / filler=0 / ip_ratio=1.40 / aq=1:0.80
Language : English
Default : Yes
Forced : No

Audio
ID : 2
Format : AAC
Format/Info : Advanced Audio Codec
Format profile : LC
Codec ID : A_AAC-2
Duration : 11 min 43 s
Bit rate : 128 kb/s
Channel(s) : 2 channels
Channel positions : Front: L R
Sampling rate : 48.0 kHz
Frame rate : 46.875 FPS (1024 SPF)
Compression mode : Lossy
Stream size : 10.7 MiB (4%)
Language : English
Default : Yes
Forced : No

Text
ID : 3
Format : UTF-8
Codec ID : S_TEXT/UTF8
Codec ID/Info : UTF-8 Plain Text
Duration : 11 min 36 s
Bit rate : 129 b/s
Count of elements : 289
Stream size : 11.0 KiB (0%)
Language : English
Default : No
Forced : No





Bunsen is a Beast S01E39


Bunsen is a Beast S01E39


Bunsen is a Beast S01E39


Bunsen is a Beast S01E39


Bunsen is a Beast S01E39

All episodes