Cobra Kai S01E01

Posted By: Tavaz
720p (HD) / WEB-DL IMDb
Cobra Kai S01E01

Cobra Kai S01E01
WEB-DL | MKV | 1280x720 | English | H265 @ 648 kbps | AAC @ 64 kbps | 36 min 1 s | 184 MiB
Genre: Drama

This Karate Kid sequel series picks up 30 years after the events of the 1984 All Valley Karate Tournament and finds Johnny Lawrence on the hunt for redemption by reopening the infamous Cobra Kai karate dojo. This reignites his old rivalry with the successful Daniel LaRusso, who has been working to maintain the balance in his life without mentor Mr. Miyagi.

Cobra.Kai.S01E07.720p.WEB-DL.x265-HETeam.mkv (144.3 MB)
Cobra.Kai.S01E06.720p.WEB-DL.x265-HETeam.mkv (149.9 MB)
Cobra.Kai.S01E01.720p.WEB-DL.x265-HETeam.mkv (141.1 MB)
Cobra.Kai.S01E08.720p.WEB-DL.x265-HETeam.mkv (148.5 MB)
Cobra.Kai.S01E09.720p.WEB-DL.x265-HETeam.mkv (153.3 MB)
Cobra.Kai.S01E10.720p.WEB-DL.x265-HETeam.mkv (184.2 MB)
Cobra.Kai.S01E03.720p.WEB-DL.x265-HETeam.mkv (115.5 MB)
Cobra.Kai.S01E05.720p.WEB-DL.x265-HETeam.mkv (165.3 MB)
Cobra.Kai.S01E02.720p.WEB-DL.x265-HETeam.mkv (141.1 MB)
Cobra.Kai.S01E04.720p.WEB-DL.x265-HETeam.mkv (136.9 MB)



General
Unique ID : 188162287794699455846041687634580024801 (0x8D8EBD0AD9D69429A3F62A8090832DE1)
Complete name : ./Cobra.Kai.S01E10.720p.WEB-DL.x265-HETeam.mkv
Format : Matroska
Format version : Version 4 / Version 2
File size : 184 MiB
Duration : 36 min 1 s
Overall bit rate : 715 kb/s
Movie name : Encoded by Hunter | Crazy4TV.com / Encoded by Hunter | Crazy4TV.com
Description : Downloaded from Crazy4TV.com
Encoded date : UTC 2018-05-04 13:28:10
Writing application : mkvmerge v9.6.0 ('Slave To Your Mind') 64bit
Writing library : libebml v1.3.4 + libmatroska v1.4.5

Video
ID : 1
Format : HEVC
Format/Info : High Efficiency Video Coding
Format profile : Main@L3.1@Main
Codec ID : V_MPEGH/ISO/HEVC
Duration : 36 min 1 s
Bit rate : 649 kb/s
Width : 1 280 pixels
Height : 720 pixels
Display aspect ratio : 16:9
Frame rate mode : Constant
Frame rate : 23.976 (24000/1001) FPS
Color space : YUV
Chroma subsampling : 4:2:0
Bit depth : 8 bits
Bits/(Pixel*Frame) : 0.029
Stream size : 167 MiB (91%)
Default : Yes
Forced : No
Color range : Limited
Color primaries : BT.709
Transfer characteristics : BT.709
Matrix coefficients : BT.709

Audio
ID : 2
Format : AAC
Format/Info : Advanced Audio Codec
Format profile : HE-AAC / LC
Format settings : Explicit
Codec ID : A_AAC-2
Duration : 36 min 1 s
Bit rate : 64.0 kb/s
Channel(s) : 2 channels
Channel positions : Front: L R
Sampling rate : 48.0 kHz / 24.0 kHz
Frame rate : 23.438 FPS (1024 SPF)
Compression mode : Lossy
Delay relative to video : -4 ms
Stream size : 16.5 MiB (9%)
Default : Yes
Forced : No

Text
ID : 3
Format : UTF-8
Codec ID : S_TEXT/UTF8
Codec ID/Info : UTF-8 Plain Text
Duration : 34 min 10 s
Bit rate : 79 b/s
Count of elements : 713
Stream size : 20.0 KiB (0%)
Default : Yes
Forced : No





Cobra Kai S01E01


Cobra Kai S01E01


Cobra Kai S01E01


Cobra Kai S01E01


Cobra Kai S01E01

All episodes