Conan 2018-04-16

Posted By: Tavaz
1080p (FullHD) / WEBRip IMDb
Conan 2018-04-16

Conan 2018-04-16
WEBRip | MKV | 1920x1080 | English | H264 @ 4500 kbps | AAC @ 125 kbps | 42 min 15 s | 1.34 GiB
Genre: Comedy

Conan is a late-night talk show airing each Monday through Thursday on TBS in the United States. The hourlong show premiered on November 8, 2010, and is hosted by writer, comedian and performer Conan O'Brien. The program's host previously starred on NBC's Late Night with Conan O'Brien for 16 years, then presented The Tonight Show for seven months until Jay Leno's return to his version of The Tonight Show due to the 2010 Tonight Show conflict.

Describing itself as a traditional late-night talk show, Conan draws its comedy from recent news stories, political figures and prominent celebrities, as well as aspects of the show itself. The show typically opens with a monologue from Conan O'Brien relating to recent headlines and frequently features exchanges with his sidekick, Andy Richter, and members of the audience. The next segment is devoted to a celebrity interview, with guests ranging from actors and musicians to media personalities and political figures. The show then closes with either a musical or comedy performance.

In January 2010, after The Tonight Show with Conan O'Brien had been on the air for seven months, it was announced that NBC intended to move Jay Leno from primetime back to his original timeslot, with O'Brien's show starting shortly after midnight. Following a brief conflict, NBC announced that they had paid $45 million to buy out O'Brien's contract, ending his relationship with the network. Months after his official leave, O'Brien went on a comedy tour called The Legally Prohibited from Being Funny on Television Tour, which was largely inspired by the outpouring of support for O'Brien on the Internet during the conflict. It was announced on the first day of the tour that O'Brien would be joining TBS in November.

6f51998002264675862f94664b13fd6b.mkv (1.3 GB)



General
Unique ID : 120899621027446716160677056517328149029 (0x5AF46B87C0E0479FB74A8A4A34351A25)
Complete name : ./6f51998002264675862f94664b13fd6b.mkv
Format : Matroska
Format version : Version 4 / Version 2
File size : 1.34 GiB
Duration : 42 min 15 s
Overall bit rate : 4 549 kb/s
Encoded date : UTC 2018-04-17 07:10:29
Writing application : mkvmerge v21.0.0 ('Tardigrades Will Inherit The Earth') 64-bit
Writing library : libebml v1.3.5 + libmatroska v1.4.8

Video
ID : 1
Format : AVC
Format/Info : Advanced Video Codec
Format profile : High@L4
Format settings : CABAC / 4 Ref Frames
Format settings, CABAC : Yes
Format settings, RefFrames : 4 frames
Codec ID : V_MPEG4/ISO/AVC
Duration : 42 min 15 s
Bit rate : 4 500 kb/s
Width : 1 920 pixels
Height : 1 080 pixels
Display aspect ratio : 16:9
Frame rate mode : Constant
Frame rate : 29.970 (29970/1000) FPS
Color space : YUV
Chroma subsampling : 4:2:0
Bit depth : 8 bits
Scan type : Progressive
Bits/(Pixel*Frame) : 0.072
Stream size : 1.30 GiB (97%)
Writing library : x264 core 148
Encoding settings : cabac=1 / ref=1 / deblock=1:0:0 / analyse=0x3:0x113 / me=hex / subme=2 / psy=1 / psy_rd=1.00:0.00 / mixed_ref=0 / me_range=16 / chroma_me=1 / trellis=0 / 8x8dct=1 / cqm=0 / deadzone=21,11 / fast_pskip=1 / chroma_qp_offset=0 / threads=34 / lookahead_threads=8 / sliced_threads=0 / nr=0 / decimate=1 / interlaced=0 / bluray_compat=0 / constrained_intra=0 / bframes=2 / b_pyramid=2 / b_adapt=0 / b_bias=0 / direct=1 / weightb=1 / open_gop=0 / weightp=1 / keyint=60 / keyint_min=6 / scenecut=0 / intra_refresh=0 / rc_lookahead=10 / rc=2pass / mbtree=1 / bitrate=4500 / ratetol=1.0 / qcomp=0.60 / qpmin=0 / qpmax=69 / qpstep=4 / cplxblur=20.0 / qblur=0.5 / vbv_maxrate=4500 / vbv_bufsize=4500 / nal_hrd=none / filler=0 / ip_ratio=1.40 / aq=1:1.00
Default : Yes
Forced : No

Audio
ID : 2
Format : AAC
Format/Info : Advanced Audio Codec
Format profile : LC
Codec ID : A_AAC-2
Duration : 42 min 15 s
Bit rate : 126 kb/s
Channel(s) : 2 channels
Channel positions : Front: L R
Sampling rate : 44.1 kHz
Frame rate : 43.066 FPS (1024 SPF)
Compression mode : Lossy
Stream size : 38.0 MiB (3%)
Default : Yes
Forced : No





Conan 2018-04-16


Conan 2018-04-16


Conan 2018-04-16


Conan 2018-04-16


Conan 2018-04-16