Condor S01E05

Posted By: Tavaz
720p (HD) / WEB-DL IMDb
Condor S01E05

Condor S01E05
WEB-DL | MKV | 1280x720 | English | H264 @ 4130 kbps | E-AC-3 @ 448 kbps | 48 min 0 s | 1.54 GiB
Subtitles: English
Genre: Drama

Young CIA analyst Joe Turner has his idealism tested when he stumbles onto a terrible but brilliant plan that threatens the lives of millions. Inspired by Sydney Pollack’s 1975 political thriller Three Days of the Condor.

bcf5aa75e33048db93697a155e8e3b06.mkv (1.5 GB)



General
Unique ID : 21741272290981754445913496032138470969 (0x105B377BD788747A0B12B39F946BA639)
Complete name : ./bcf5aa75e33048db93697a155e8e3b06.mkv
Format : Matroska
Format version : Version 4 / Version 2
File size : 1.54 GiB
Duration : 48 min 0 s
Overall bit rate : 4 580 kb/s
Encoded date : UTC 2018-07-12 12:40:12
Writing application : mkvmerge v19.0.0 ('Brave Captain') 64-bit
Writing library : libebml v1.3.5 + libmatroska v1.4.8

Video
ID : 1
Format : AVC
Format/Info : Advanced Video Codec
Format profile : Main@L3.1
Format settings : CABAC / 4 Ref Frames
Format settings, CABAC : Yes
Format settings, RefFrames : 4 frames
Codec ID : V_MPEG4/ISO/AVC
Duration : 48 min 0 s
Bit rate : 4 130 kb/s
Width : 1 280 pixels
Height : 720 pixels
Display aspect ratio : 16:9
Frame rate mode : Constant
Frame rate : 23.976 (24000/1001) FPS
Color space : YUV
Chroma subsampling : 4:2:0
Bit depth : 8 bits
Scan type : Progressive
Bits/(Pixel*Frame) : 0.187
Stream size : 1.39 GiB (90%)
Writing library : Zencoder Video Encoding System
Default : Yes
Forced : No
Color range : Limited
Color primaries : BT.709
Transfer characteristics : BT.709
Matrix coefficients : BT.709

Audio
ID : 2
Format : E-AC-3
Format/Info : Enhanced Audio Coding 3
Format settings, Endianness : Big
Codec ID : A_EAC3
Duration : 48 min 0 s
Bit rate mode : Constant
Bit rate : 448 kb/s
Channel(s) : 6 channels
Channel positions : Front: L C R, Side: L R, LFE
Sampling rate : 48.0 kHz
Frame rate : 187.500 FPS (256 SPF)
Compression mode : Lossy
Stream size : 154 MiB (10%)
Language : English
Service kind : Complete Main
Default : Yes
Forced : No

Text
ID : 3
Format : UTF-8
Codec ID : S_TEXT/UTF8
Codec ID/Info : UTF-8 Plain Text
Duration : 46 min 0 s
Bit rate : 67 b/s
Count of elements : 618
Stream size : 22.6 KiB (0%)
Language : English
Default : No
Forced : No





Condor S01E05


Condor S01E05


Condor S01E05


Condor S01E05


Condor S01E05

All episodes