Dennis & Gnasher Unleashed! S01E42

Posted By: Tavaz
720p (HD) / HDTV IMDb
Dennis & Gnasher Unleashed! S01E42

Dennis & Gnasher Unleashed! S01E42
HDTV | MKV | 1280x720 | H264 @ 2258 kbps | AC-3 @ 192 kbps | 10 min 41 s | 191 MiB
Subtitles: English

An animated series about a 10-year-old much-loved mischief-maker Dennis, his fearless friends and their hometown.

88a1012fc02d455e850d0e223a56130e.mkv (191.2 MB)



General
Complete name : ./88a1012fc02d455e850d0e223a56130e.mkv
Format : Matroska
Format version : Version 4 / Version 2
File size : 191 MiB
Duration : 10 min 41 s
Overall bit rate : 2 500 kb/s
Writing application : The Black Sparrow (Built on May 10th 2018)
Writing library : The Black Sparrow

Video
ID : 1
Format : AVC
Format/Info : Advanced Video Codec
Format profile : High@L4.1
Format settings : CABAC / 5 Ref Frames
Format settings, CABAC : Yes
Format settings, RefFrames : 5 frames
Codec ID : V_MPEG4/ISO/AVC
Duration : 10 min 41 s
Bit rate : 2 259 kb/s
Width : 1 280 pixels
Height : 720 pixels
Display aspect ratio : 16:9
Frame rate mode : Constant
Frame rate : 25.000 FPS
Color space : YUV
Chroma subsampling : 4:2:0
Bit depth : 8 bits
Scan type : Progressive
Bits/(Pixel*Frame) : 0.098
Stream size : 173 MiB (90%)
Writing library : x264 core 157 r2929 f2e7416
Encoding settings : cabac=1 / ref=5 / deblock=1:0:0 / analyse=0x3:0x113 / me=hex / subme=8 / psy=1 / psy_rd=1.00:0.00 / mixed_ref=1 / me_range=16 / chroma_me=1 / trellis=2 / 8x8dct=1 / cqm=0 / deadzone=21,11 / fast_pskip=1 / chroma_qp_offset=-2 / threads=12 / lookahead_threads=2 / sliced_threads=0 / nr=0 / decimate=1 / interlaced=0 / bluray_compat=0 / constrained_intra=0 / bframes=3 / b_pyramid=2 / b_adapt=1 / b_bias=0 / direct=3 / weightb=1 / open_gop=0 / weightp=2 / keyint=250 / keyint_min=25 / scenecut=40 / intra_refresh=0 / rc_lookahead=50 / rc=crf / mbtree=1 / crf=19.0 / qcomp=0.60 / qpmin=0 / qpmax=69 / qpstep=4 / ip_ratio=1.40 / aq=1:1.00
Default : Yes
Forced : No
Color range : Limited
Matrix coefficients : BT.709

Audio
ID : 2
Format : AC-3
Format/Info : Audio Coding 3
Format settings, Endianness : Big
Codec ID : A_AC3
Duration : 10 min 41 s
Bit rate mode : Constant
Bit rate : 192 kb/s
Channel(s) : 2 channels
Channel positions : Front: L R
Sampling rate : 48.0 kHz
Frame rate : 31.250 FPS (1536 SPF)
Bit depth : 16 bits
Compression mode : Lossy
Stream size : 14.7 MiB (8%)
Service kind : Complete Main
Default : Yes
Forced : No

Text
ID : 3
Format : ASS
Codec ID : S_TEXT/ASS
Codec ID/Info : Advanced Sub Station Alpha
Compression mode : Lossless
Language : English
Default : No
Forced : No





Dennis & Gnasher Unleashed! S01E42


Dennis & Gnasher Unleashed! S01E42


Dennis & Gnasher Unleashed! S01E42


Dennis & Gnasher Unleashed! S01E42


Dennis & Gnasher Unleashed! S01E42

All episodes