Father Brown S06E02

Posted By: Tavaz
1080p (FullHD) / BDRip IMDb
Father Brown S06E02

Father Brown S06E02
BDRip | MKV | 1920x1080 | English | H264 @ 9659 kbps | DTS @ 768 kbps | 44 min 59 s | 3.28 GiB
Genre: Drama, Crime, Mystery

Father Brown is based on G. K. Chesterton's detective stories about a Catholic priest who doubles as an amateur detective in order to try and solve mysteries.

6431592e2b064771ac2fcf78201b4761.mkv (3.3 GB)



General
Unique ID : 0 (0x0)
Complete name : ./6431592e2b064771ac2fcf78201b4761.mkv
Format : Matroska
Format version : Version 4 / Version 2
File size : 3.28 GiB
Duration : 44 min 59 s
Overall bit rate : 10.4 Mb/s
Encoded date : UTC 2010-02-22 21:41:29
Writing application : no_variable_data
Writing library : no_variable_data

Video
ID : 1
Format : AVC
Format/Info : Advanced Video Codec
Format profile : High@L4.1
Format settings : CABAC / 4 Ref Frames
Format settings, CABAC : Yes
Format settings, RefFrames : 4 frames
Codec ID : V_MPEG4/ISO/AVC
Duration : 44 min 59 s
Bit rate : 9 659 kb/s
Width : 1 920 pixels
Height : 1 080 pixels
Display aspect ratio : 16:9
Frame rate mode : Constant
Frame rate : 25.000 FPS
Color space : YUV
Chroma subsampling : 4:2:0
Bit depth : 8 bits
Scan type : Progressive
Bits/(Pixel*Frame) : 0.186
Stream size : 2.97 GiB (91%)
Writing library : x264 core 155 r2901 7d0ff22
Encoding settings : cabac=1 / ref=4 / deblock=1:-3:-3 / analyse=0x3:0x113 / me=umh / subme=8 / psy=1 / psy_rd=1.00:0.00 / mixed_ref=1 / me_range=16 / chroma_me=1 / trellis=1 / 8x8dct=1 / cqm=0 / deadzone=21,11 / fast_pskip=1 / chroma_qp_offset=-2 / threads=24 / lookahead_threads=4 / sliced_threads=0 / nr=0 / decimate=1 / interlaced=0 / bluray_compat=0 / constrained_intra=0 / bframes=3 / b_pyramid=2 / b_adapt=2 / b_bias=0 / direct=3 / weightb=1 / open_gop=0 / weightp=2 / keyint=250 / keyint_min=25 / scenecut=40 / intra_refresh=0 / rc_lookahead=50 / rc=2pass / mbtree=1 / bitrate=9659 / ratetol=1.0 / qcomp=0.60 / qpmin=0 / qpmax=69 / qpstep=4 / cplxblur=20.0 / qblur=0.5 / ip_ratio=1.40 / aq=3:0.80
Default : Yes
Forced : No
Statistics Tags Issue : no_variable_data 1970-01-01 00:00:00 / no_variable_data 2010-02-22 21:41:29
FromStats_BitRate : 9653637
FromStats_Duration : 00:44:59.000000000
FromStats_FrameCount : 67475
FromStats_StreamSize : 3256895973

Audio
ID : 2
Format : DTS
Format/Info : Digital Theater Systems
Mode : 16
Format settings, Endianness : Big
Codec ID : A_DTS
Duration : 44 min 59 s
Bit rate mode : Constant
Bit rate : 768 kb/s
Channel(s) : 6 channels
Channel positions : Front: L C R, Side: L R, LFE
Sampling rate : 48.0 kHz
Frame rate : 93.750 FPS (512 SPF)
Bit depth : 24 bits
Compression mode : Lossy
Stream size : 247 MiB (7%)
Language : English
Default : Yes
Forced : No
Statistics Tags Issue : no_variable_data 1970-01-01 00:00:00 / no_variable_data 2010-02-22 21:41:29
FromStats_BitRate : 768000
FromStats_Duration : 00:44:59.008000000
FromStats_FrameCount : 253032
FromStats_StreamSize : 259104768

Menu
00:00:00.000 : en:00:00:00.000
00:08:33.280 : en:00:08:33.280
00:15:53.040 : en:00:15:53.040
00:23:22.880 : en:00:23:22.880
00:29:23.120 : en:00:29:23.120
00:36:37.680 : en:00:36:37.680





Father Brown S06E02


Father Brown S06E02


Father Brown S06E02


Father Brown S06E02


Father Brown S06E02

All episodes