Gold Rush S08E14

Posted By: Tavaz
SD / HDTV IMDb
Gold Rush S08E14

Gold Rush S08E14
HDTV | TS | 1920x1080 | English | MPV @ 8567 kbps | AC-3 @ 384 kbps | 41 min 27 s | 2.73 GiB
Genre: Documentary

Follow the lives of ambitious miners as they head north in pursuit of gold. With new miners, new claims, new machines and new ways to pull gold out of the ground, the stakes are higher than ever. But will big risks lead to an even bigger pay out?

8794ff03bc9b4b0eb6a8aa62785e1305.mpg (2.7 GB)



General
ID : 1 (0x1)
Complete name : ./8794ff03bc9b4b0eb6a8aa62785e1305.mpg
Format : MPEG-TS
File size : 2.73 GiB
Duration : 41 min 27 s
Overall bit rate mode : Variable
Overall bit rate : 9 421 kb/s
Law rating : TV-14 (L)
FileExtension_Invalid : ts m2t m2s m4t m4s tmf ts tp trp ty

Video
ID : 5601 (0x15E1)
Menu ID : 1 (0x1)
Format : MPEG Video
Format version : Version 2
Format profile : Main@High
Format settings : CustomMatrix / BVOP
Format settings, BVOP : Yes
Format settings, Matrix : Custom
Format settings, GOP : Variable
Format settings, picture structure : Frame
Codec ID : 2
Duration : 41 min 27 s
Bit rate mode : Variable
Bit rate : 8 567 kb/s
Maximum bit rate : 25.0 Mb/s
Width : 1 920 pixels
Height : 1 080 pixels
Display aspect ratio : 16:9
Frame rate : 29.970 (30000/1001) FPS
Color space : YUV
Chroma subsampling : 4:2:0
Bit depth : 8 bits
Scan type : Interlaced
Scan order : Top Field First
Compression mode : Lossy
Bits/(Pixel*Frame) : 0.138
Time code of first frame : 00:00:00;00
Time code source : Group of pictures header
GOP, Open/Closed : Open
GOP, Open/Closed of first frame : Closed
Stream size : 2.48 GiB (91%)

Audio
ID : 5602 (0x15E2)
Menu ID : 1 (0x1)
Format : AC-3
Format/Info : Audio Coding 3
Format settings, Endianness : Big
Codec ID : 129
Duration : 41 min 27 s
Bit rate mode : Constant
Bit rate : 384 kb/s
Channel(s) : 6 channels
Channel positions : Front: L C R, Side: L R, LFE
Sampling rate : 48.0 kHz
Frame rate : 31.250 FPS (1536 SPF)
Bit depth : 16 bits
Compression mode : Lossy
Delay relative to video : 28 ms
Stream size : 114 MiB (4%)
Language : English
Service kind : Complete Main

Text #1
ID : 5601 (0x15E1)-CC1
Menu ID : 1 (0x1)
Format : EIA-608
Muxing mode : A/53 / DTVCC Transport
Muxing mode, more info : Muxed in Video #1
Duration : 41 min 27 s
Bit rate mode : Constant
Stream size : 0.00 Byte (0%)
CaptionServiceName : CC1

Text #2
ID : 5601 (0x15E1)-1
Menu ID : 1 (0x1)
Format : EIA-708
Muxing mode : A/53 / DTVCC Transport
Muxing mode, more info : Muxed in Video #1
Duration : 41 min 27 s
Bit rate mode : Constant
Stream size : 0.00 Byte (0%)





Gold Rush S08E14


Gold Rush S08E14


Gold Rush S08E14


Gold Rush S08E14


Gold Rush S08E14

All episodes