Inside No. 9 S04E01

Posted By: Tavaz
1080p (FullHD) / BDRip IMDb
Inside No. 9 S04E01

Inside No. 9 S04E01
BDRip | MKV | 1920x1080 | English | H264 @ 9191 kbps | DTS @ 1509 kbps | 29 min 12 s | 2.18 GiB
Genre: Comedy, Mystery

Inside No. 9 invites viewers into many very different No. 9s, where the ordinary and mundane rub shoulders with the extraordinary and macabre. From a grand country house where a game of 'sardines' leads to some chilling revelations in a wardrobe; to a very oddly haunted house; to a blood-soaked actor's dressing room in London's West End; to the flat of an apparently happy primary school teacher who becomes the victim of a good deed; these unpredictable tales feature high comedy and claustrophobic horror by turns.

007a2965609f4e868638c43f2a9fd292.mkv (2.2 GB)



General
Unique ID : 0 (0x0)
Complete name : ./007a2965609f4e868638c43f2a9fd292.mkv
Format : Matroska
Format version : Version 4 / Version 2
File size : 2.18 GiB
Duration : 29 min 12 s
Overall bit rate : 10.7 Mb/s
Encoded date : UTC 2010-02-22 21:41:29
Writing application : no_variable_data
Writing library : no_variable_data

Video
ID : 1
Format : AVC
Format/Info : Advanced Video Codec
Format profile : High@L4.1
Format settings : CABAC / 4 Ref Frames
Format settings, CABAC : Yes
Format settings, RefFrames : 4 frames
Codec ID : V_MPEG4/ISO/AVC
Duration : 29 min 12 s
Bit rate : 9 191 kb/s
Width : 1 920 pixels
Height : 1 080 pixels
Display aspect ratio : 16:9
Frame rate mode : Constant
Frame rate : 25.000 FPS
Color space : YUV
Chroma subsampling : 4:2:0
Bit depth : 8 bits
Scan type : Progressive
Bits/(Pixel*Frame) : 0.177
Stream size : 1.83 GiB (84%)
Writing library : x264 core 155 r2901 7d0ff22
Encoding settings : cabac=1 / ref=4 / deblock=1:-3:-3 / analyse=0x3:0x113 / me=umh / subme=8 / psy=1 / psy_rd=1.00:0.00 / mixed_ref=1 / me_range=16 / chroma_me=1 / trellis=1 / 8x8dct=1 / cqm=0 / deadzone=21,11 / fast_pskip=1 / chroma_qp_offset=-2 / threads=6 / lookahead_threads=1 / sliced_threads=0 / nr=0 / decimate=1 / interlaced=0 / bluray_compat=0 / constrained_intra=0 / bframes=3 / b_pyramid=2 / b_adapt=2 / b_bias=0 / direct=3 / weightb=1 / open_gop=0 / weightp=2 / keyint=250 / keyint_min=25 / scenecut=40 / intra_refresh=0 / rc_lookahead=50 / rc=2pass / mbtree=1 / bitrate=9191 / ratetol=1.0 / qcomp=0.60 / qpmin=0 / qpmax=69 / qpstep=4 / cplxblur=20.0 / qblur=0.5 / ip_ratio=1.40 / aq=3:0.80
Default : Yes
Forced : No
Statistics Tags Issue : no_variable_data 1970-01-01 00:00:00 / no_variable_data 2010-02-22 21:41:29
FromStats_BitRate : 9194614
FromStats_Duration : 00:29:12.400000000
FromStats_FrameCount : 43810
FromStats_StreamSize : 2014080246

Audio
ID : 2
Format : DTS
Format/Info : Digital Theater Systems
Mode : 16
Format settings, Endianness : Big
Codec ID : A_DTS
Duration : 29 min 12 s
Bit rate mode : Constant
Bit rate : 1 509 kb/s
Channel(s) : 2 channels
Channel positions : Front: L R
Sampling rate : 48.0 kHz
Frame rate : 93.750 FPS (512 SPF)
Bit depth : 24 bits
Compression mode : Lossy
Stream size : 315 MiB (14%)
Language : English
Default : Yes
Forced : No
Statistics Tags Issue : no_variable_data 1970-01-01 00:00:00 / no_variable_data 2010-02-22 21:41:29
FromStats_BitRate : 1508999
FromStats_Duration : 00:29:12.406000000
FromStats_FrameCount : 164288
FromStats_StreamSize : 330547456

Menu
00:00:00.000 : en:00:00:00.000
00:07:07.800 : en:00:07:07.800
00:14:47.440 : en:00:14:47.440
00:22:22.280 : en:00:22:22.280





Inside No. 9 S04E01


Inside No. 9 S04E01


Inside No. 9 S04E01


Inside No. 9 S04E01


Inside No. 9 S04E01

All episodes