Jean-Claude Van Johnson S01E01

Posted By: Tavaz
1080p (FullHD) / WEBRip IMDb
Jean-Claude Van Johnson S01E01

Jean-Claude Van Johnson S01E01
WEBRip | MKV | 1920x800 | French | H264 @ 4687 kbps | AC-3 @ 192 kbps | 27 min 4 s | 945 MiB
Genre: Comedy

Jean-Claude Van Damme is a global martial arts & film sensation, also operating under the simple alias of "Johnson" as the world's best undercover private contractor. Retired for years, a chance encounter with a lost love brings him back to the game. This time, he'll be deadlier than ever. Probably.

Jean-Claude.Van.Johnson.S01E04.FRENCH.1080p.AMZN.WEBRip.x264-FRATERNiTY.mkv (906.6 MB)
Jean-Claude.Van.Johnson.S01E02.FRENCH.1080p.AMZN.WEBRip.x264-FRATERNiTY.mkv (889.7 MB)
Jean-Claude.Van.Johnson.S01E01.FRENCH.1080p.AMZN.WEBRip.x264-FRATERNiTY.mkv (796.2 MB)
Jean-Claude.Van.Johnson.S01E06.FINAL.FRENCH.1080p.AMZN.WEBRip.x264-FRATERNiTY.mkv (883.3 MB)
Jean-Claude.Van.Johnson.S01E03.FRENCH.1080p.AMZN.WEBRip.x264-FRATERNiTY.mkv (945.4 MB)
Jean-Claude.Van.Johnson.S01E05.FRENCH.1080p.AMZN.WEBRip.x264-FRATERNiTY.mkv (769.2 MB)



General
Unique ID : 187025802953664071154325333758468062043 (0x8CB3DC037BC1B2EF95A242E393767B5B)
Complete name : ./Jean-Claude.Van.Johnson.S01E03.FRENCH.1080p.AMZN.WEBRip.x264-FRATERNiTY.mkv
Format : Matroska
Format version : Version 4 / Version 2
File size : 945 MiB
Duration : 27 min 4 s
Overall bit rate mode : Variable
Overall bit rate : 4 881 kb/s
Encoded date : UTC 2017-12-18 19:49:32
Writing application : mkvmerge v9.5.0 ('Quiet Fire') 64bit
Writing library : libebml v1.3.4 + libmatroska v1.4.5

Video
ID : 1
Format : AVC
Format/Info : Advanced Video Codec
Format profile : High@L4
Format settings : CABAC / 4 Ref Frames
Format settings, CABAC : Yes
Format settings, RefFrames : 4 frames
Codec ID : V_MPEG4/ISO/AVC
Duration : 27 min 4 s
Bit rate mode : Variable
Bit rate : 4 687 kb/s
Maximum bit rate : 15.0 Mb/s
Width : 1 920 pixels
Height : 800 pixels
Display aspect ratio : 2.40:1
Frame rate mode : Constant
Frame rate : 23.976 (24000/1001) FPS
Color space : YUV
Chroma subsampling : 4:2:0
Bit depth : 8 bits
Scan type : Progressive
Bits/(Pixel*Frame) : 0.127
Stream size : 908 MiB (96%)
Title : Jean-Claude.Van.Johnson.S01E03.FRENCH.1080p.AMZN.WEBRip.x264-FRATERNiTY
Default : Yes
Forced : No
Color range : Limited
Color primaries : BT.709
Transfer characteristics : BT.709
Matrix coefficients : BT.709

Audio
ID : 2
Format : AC-3
Format/Info : Audio Coding 3
Format settings, Endianness : Big
Codec ID : A_AC3
Duration : 27 min 4 s
Bit rate mode : Constant
Bit rate : 192 kb/s
Channel(s) : 2 channels
Channel positions : Front: L R
Sampling rate : 48.0 kHz
Frame rate : 31.250 FPS (1536 SPF)
Bit depth : 16 bits
Compression mode : Lossy
Stream size : 37.2 MiB (4%)
Title : Jean-Claude.Van.Johnson.S01E03.FRENCH.1080p.AMZN.WEBRip.x264-FRATERNiTY
Language : French
Service kind : Complete Main
Default : Yes
Forced : No





Jean-Claude Van Johnson S01E01


Jean-Claude Van Johnson S01E01


Jean-Claude Van Johnson S01E01


Jean-Claude Van Johnson S01E01


Jean-Claude Van Johnson S01E01

All episodes