Kevin (Probably) Saves the World S01E11

Posted By: Tavaz
SD / WEBRip IMDb
Kevin (Probably) Saves the World S01E11

Kevin (Probably) Saves the World S01E11
WEBRip | MOV | 720x400 | English | H264 @ 1100 kbps | AAC @ 128 kbps | 42 min 56 s | 374 MiB
Genre: Comedy, Drama

One day while returning home to stay with his widowed twin sister and her daughter, Kevin Finn, a self-centered man whose life brings him more trouble than he bargained for, is recruited by a celestial being named Yvette, who enlists Kevin with a new purpose in his life, which is to save the world.

f10a5efeb2b147549455beac00518ce2.mp4 (373.6 MB)



General
Complete name : ./f10a5efeb2b147549455beac00518ce2.mp4
Format : MPEG-4
Format profile : Base Media
Codec ID : isom (isom/iso2/avc1/mp41)
File size : 374 MiB
Duration : 42 min 56 s
Overall bit rate : 1 216 kb/s
Movie name : RARBG - Kevin.Probably.Saves.the.World.S01E11.WEBRip.x264-RARBG
Encoded date : UTC 2018-01-13 02:35:15
Tagged date : UTC 2018-01-13 02:35:15
Writing application : Lavf57.83.100
Comment : RARBG - Kevin.Probably.Saves.the.World.S01E11.WEBRip.x264-RARBG

Video
ID : 1
Format : AVC
Format/Info : Advanced Video Codec
Format profile : High@L3.1
Format settings : CABAC / 5 Ref Frames
Format settings, CABAC : Yes
Format settings, RefFrames : 5 frames
Codec ID : avc1
Codec ID/Info : Advanced Video Coding
Duration : 42 min 56 s
Bit rate : 1 100 kb/s
Width : 720 pixels
Height : 400 pixels
Display aspect ratio : 16:9
Frame rate mode : Constant
Frame rate : 23.976 (24000/1001) FPS
Color space : YUV
Chroma subsampling : 4:2:0
Bit depth : 8 bits
Scan type : Progressive
Bits/(Pixel*Frame) : 0.159
Stream size : 333 MiB (89%)
Title : RARBG - Kevin.Probably.Saves.the.World.S01E11.WEBRip.x264-RARBG
Writing library : x264 core 152 r2851M ba24899
Encoding settings : cabac=1 / ref=5 / deblock=1:-1:-1 / analyse=0x3:0x113 / me=umh / subme=9 / psy=1 / psy_rd=1.00:0.15 / mixed_ref=1 / me_range=16 / chroma_me=1 / trellis=2 / 8x8dct=1 / cqm=0 / deadzone=21,11 / fast_pskip=1 / chroma_qp_offset=-3 / threads=12 / lookahead_threads=1 / sliced_threads=0 / nr=0 / decimate=1 / interlaced=0 / bluray_compat=0 / constrained_intra=0 / bframes=3 / b_pyramid=2 / b_adapt=2 / b_bias=0 / direct=3 / weightb=1 / open_gop=0 / weightp=2 / keyint=250 / keyint_min=23 / scenecut=40 / intra_refresh=0 / rc_lookahead=50 / rc=abr / mbtree=1 / bitrate=1100 / ratetol=1.0 / qcomp=0.60 / qpmin=0 / qpmax=69 / qpstep=4 / ip_ratio=1.40 / aq=1:1.00
Encoded date : UTC 2018-01-13 02:35:15
Tagged date : UTC 2018-01-13 02:35:15

Audio
ID : 2
Format : AAC
Format/Info : Advanced Audio Codec
Format profile : LC
Codec ID : mp4a-40-2
Duration : 42 min 56 s
Bit rate mode : Constant
Bit rate : 128 kb/s
Channel(s) : 2 channels
Channel positions : Front: L R
Sampling rate : 48.0 kHz
Frame rate : 46.875 FPS (1024 SPF)
Compression mode : Lossy
Stream size : 39.3 MiB (11%)
Title : RARBG - Kevin.Probably.Saves.the.World.S01E11.WEBRip.x264-RARBG
Language : English
Default : Yes
Alternate group : 1
Encoded date : UTC 2018-01-13 02:35:15
Tagged date : UTC 2018-01-13 02:35:15





Kevin (Probably) Saves the World S01E11


Kevin (Probably) Saves the World S01E11


Kevin (Probably) Saves the World S01E11


Kevin (Probably) Saves the World S01E11


Kevin (Probably) Saves the World S01E11

All episodes