Legion S02E10

Posted By: Tavaz
SD / HDTV IMDb
Legion S02E10

Legion S02E10
HDTV | MKV | 720x404 | German | H264 @ 458 kbps | AC-3 @ 192 kbps | 43 min 7 s | 205 MiB

Im Mittelpunkt der Geschichte von Legion befindet sich der Teenager David Haller. Dieser kämpft bereits seit seiner Kindheit mit einer mentalen Krankheit - oder zumindest haben diverse Ärzte bei ihm Schizophrenie diagnostiziert. Dementsprechend ist der Besuch einer psychiatrischen Anstalt inklusive Therapie mittlerweile ein fester Bestandteil seines Lebens geworden. Als David eines Tages die Bekanntschaft mit einem anderen Patienten macht, verändert sich sein Leben jedoch schlagartig: Was, wenn die Stimmen und Visionen in seinem Kopf echt sind?

S02E10.mkv (204.8 MB)



General
Unique ID : 337425429028580600204202769657238380438 (0xFDD9C616358D7781EF66CB1A5D9BDF96)
Complete name : ./Legi S02E10 German/S02E10.mkv
Format : Matroska
Format version : Version 4 / Version 2
File size : 205 MiB
Duration : 43 min 7 s
Overall bit rate : 664 kb/s
Encoded date : UTC 2018-06-13 21:25:21
Writing application : mkvmerge v23.0.0 ('The Bride Said No') 64-bit
Writing library : libebml v1.3.6 + libmatroska v1.4.9

Video
ID : 1
Format : AVC
Format/Info : Advanced Video Codec
Format profile : High@L3.1
Format settings : CABAC / 5 Ref Frames
Format settings, CABAC : Yes
Format settings, RefFrames : 5 frames
Codec ID : V_MPEG4/ISO/AVC
Duration : 43 min 7 s
Bit rate : 459 kb/s
Width : 720 pixels
Height : 404 pixels
Display aspect ratio : 16:9
Frame rate mode : Constant
Frame rate : 25.000 FPS
Color space : YUV
Chroma subsampling : 4:2:0
Bit depth : 8 bits
Scan type : Progressive
Bits/(Pixel*Frame) : 0.063
Stream size : 142 MiB (69%)
Writing library : x264 core 155 r2901 7d0ff22
Encoding settings : cabac=1 / ref=5 / deblock=1:-2:-2 / analyse=0x3:0x113 / me=umh / subme=8 / psy=1 / psy_rd=1.00:0.00 / mixed_ref=1 / me_range=16 / chroma_me=1 / trellis=2 / 8x8dct=1 / cqm=0 / deadzone=21,11 / fast_pskip=0 / chroma_qp_offset=-2 / threads=12 / lookahead_threads=2 / sliced_threads=0 / nr=0 / decimate=1 / interlaced=0 / bluray_compat=0 / constrained_intra=0 / bframes=3 / b_pyramid=2 / b_adapt=2 / b_bias=0 / direct=3 / weightb=1 / open_gop=0 / weightp=2 / keyint=250 / keyint_min=25 / scenecut=40 / intra_refresh=0 / rc_lookahead=50 / rc=crf / mbtree=1 / crf=19.0 / qcomp=0.60 / qpmin=0 / qpmax=69 / qpstep=4 / ip_ratio=1.40 / aq=1:0.80
Language : English
Default : Yes
Forced : No

Audio
ID : 2
Format : AC-3
Format/Info : Audio Coding 3
Format settings, Endianness : Big
Codec ID : A_AC3
Duration : 43 min 7 s
Bit rate mode : Constant
Bit rate : 192 kb/s
Channel(s) : 2 channels
Channel positions : Front: L R
Sampling rate : 48.0 kHz
Frame rate : 31.250 FPS (1536 SPF)
Bit depth : 16 bits
Compression mode : Lossy
Stream size : 59.2 MiB (29%)
Language : German
Service kind : Complete Main
Default : Yes
Forced : No





Legion S02E10


Legion S02E10


Legion S02E10


Legion S02E10


Legion S02E10

All episodes