Les grands reportages S24E88

Posted By: Tavaz
720p (HD) / WEBRip IMDb
Les grands reportages S24E88

Les grands reportages S24E88
WEBRip | MKV | 1280x720 | English | H264 @ 3000 kbps | AAC @ 125 kbps | 44 min 44 s | 995 MiB



Les.grands.reportages.S24E88.Mont.Saint.Michel.FRENCH.720p.WEBRip.x264-REJECT.mkv (995.4 MB)



General
Unique ID : 10282245728521736340167713044046783739 (0x7BC49DAC50B5CB71940033E046BA4FB)
Complete name : ./Les.grands.reportages.S24E88.Mont.Saint.Michel.FRENCH.720p.WEBRip.x264-REJECT.mkv
Format : Matroska
Format version : Version 4 / Version 2
File size : 995 MiB
Duration : 44 min 44 s
Overall bit rate : 3 111 kb/s
Encoded date : UTC 2018-07-12 08:05:21
Writing application : mkvmerge v19.0.0 ('Brave Captain') 64-bit
Writing library : libebml v1.3.5 + libmatroska v1.4.8

Video
ID : 1
Format : AVC
Format/Info : Advanced Video Codec
Format profile : Main@L3.1
Format settings : CABAC / 4 Ref Frames
Format settings, CABAC : Yes
Format settings, RefFrames : 4 frames
Codec ID : V_MPEG4/ISO/AVC
Duration : 44 min 44 s
Bit rate mode : Constant
Bit rate : 3 000 kb/s
Width : 1 280 pixels
Height : 720 pixels
Display aspect ratio : 16:9
Frame rate mode : Variable
Frame rate : 29.970 FPS
Color space : YUV
Chroma subsampling : 4:2:0
Bit depth : 8 bits
Scan type : Progressive
Bits/(Pixel*Frame) : 0.109
Stream size : 954 MiB (96%)
Default : Yes
Forced : No

Audio
ID : 2
Format : AAC
Format/Info : Advanced Audio Codec
Format profile : LC
Codec ID : A_AAC-2
Duration : 44 min 44 s
Bit rate : 126 kb/s
Channel(s) : 2 channels
Channel positions : Front: L R
Sampling rate : 44.1 kHz
Frame rate : 43.066 FPS (1024 SPF)
Compression mode : Lossy
Delay relative to video : -33 ms
Stream size : 40.2 MiB (4%)
Default : Yes
Forced : No





Les grands reportages S24E88


Les grands reportages S24E88


Les grands reportages S24E88


Les grands reportages S24E88

All episodes