Marvel's Agents of S.H.I.E.L.D. S05E07

Posted By: Tavaz
720p (HD) / HDTV IMDb
Marvel's Agents of S.H.I.E.L.D. S05E07

Marvel's Agents of S.H.I.E.L.D. S05E07
HDTV | MKV | 1280x718 | English | H264 @ 2451 kbps | AC-3 @ 384 kbps | 40 min 18 s | 818 MiB
Genre: Fantasy, Drama, Action, Adventure, Science Fiction

Agent Phil Coulson of S.H.I.E.L.D. (Strategic Homeland Intervention, Enforcement and Logistics Division) puts together a team of agents to investigate the new, the strange and the unknown around the globe, protecting the ordinary from the extraordinary.

7325f3c45b714a75aa7f87d0b285082d.mkv (817.9 MB)



General
Unique ID : 305278634430247926855082039582065180254 (0xE5AA86BE6BA448EAEB8DEEF28F403E5E)
Complete name : ./7325f3c45b714a75aa7f87d0b285082d.mkv
Format : Matroska
Format version : Version 4 / Version 2
File size : 818 MiB
Duration : 40 min 18 s
Overall bit rate : 2 837 kb/s
Encoded date : UTC 2018-01-13 03:01:18
Writing application : mkvmerge v8.8.0 ('Wind at my back') 64bit
Writing library : libebml v1.3.3 + libmatroska v1.4.4

Video
ID : 1
Format : AVC
Format/Info : Advanced Video Codec
Format profile : High@L4.1
Format settings : CABAC / 5 Ref Frames
Format settings, CABAC : Yes
Format settings, RefFrames : 5 frames
Codec ID : V_MPEG4/ISO/AVC
Duration : 40 min 18 s
Bit rate : 2 452 kb/s
Width : 1 280 pixels
Height : 718 pixels
Display aspect ratio : 16:9
Frame rate mode : Constant
Frame rate : 23.976 (24000/1001) FPS
Color space : YUV
Chroma subsampling : 4:2:0
Bit depth : 8 bits
Scan type : Progressive
Bits/(Pixel*Frame) : 0.111
Stream size : 707 MiB (86%)
Writing library : x264 core 155 r2893 b00bcaf
Encoding settings : cabac=1 / ref=5 / deblock=1:0:0 / analyse=0x3:0x113 / me=hex / subme=8 / psy=1 / psy_rd=1.00:0.00 / mixed_ref=1 / me_range=16 / chroma_me=1 / trellis=2 / 8x8dct=1 / cqm=0 / deadzone=21,11 / fast_pskip=1 / chroma_qp_offset=-2 / threads=22 / lookahead_threads=3 / sliced_threads=0 / nr=0 / decimate=1 / interlaced=0 / bluray_compat=0 / constrained_intra=0 / bframes=3 / b_pyramid=2 / b_adapt=1 / b_bias=0 / direct=3 / weightb=1 / open_gop=0 / weightp=2 / keyint=250 / keyint_min=23 / scenecut=40 / intra_refresh=0 / rc_lookahead=50 / rc=crf / mbtree=1 / crf=18.0 / qcomp=0.60 / qpmin=0 / qpmax=69 / qpstep=4 / ip_ratio=1.40 / aq=1:1.00
Default : Yes
Forced : No
Color range : Limited
Matrix coefficients : BT.709

Audio
ID : 2
Format : AC-3
Format/Info : Audio Coding 3
Format settings, Endianness : Big
Codec ID : A_AC3
Duration : 40 min 18 s
Bit rate mode : Constant
Bit rate : 384 kb/s
Channel(s) : 6 channels
Channel positions : Front: L C R, Side: L R, LFE
Sampling rate : 48.0 kHz
Frame rate : 31.250 FPS (1536 SPF)
Bit depth : 16 bits
Compression mode : Lossy
Stream size : 111 MiB (14%)
Service kind : Complete Main
Default : Yes
Forced : No





Marvel's Agents of S.H.I.E.L.D. S05E07


Marvel's Agents of S.H.I.E.L.D. S05E07


Marvel's Agents of S.H.I.E.L.D. S05E07


Marvel's Agents of S.H.I.E.L.D. S05E07


Marvel's Agents of S.H.I.E.L.D. S05E07

All episodes