Modern Family S09E01

Posted By: Tavaz
1080p (FullHD) / WEB-DL IMDb
Modern Family S09E01

Modern Family S09E01
WEB-DL | MKV | 1920x1080 | English | H264 @ 12862 kbps | E-AC-3 @ 640 kbps | 21 min 38 s | 2.04 GiB
Subtitles: English
Genre: Comedy

The Pritchett-Dunphy-Tucker clan is a wonderfully large and blended family. They give us an honest and often hilarious look into the sometimes warm, sometimes twisted, embrace of the modern family.

28f09a1408f14ec485c5ff5e5b954700.mkv (2.0 GB)



General
Unique ID : 178523071501777106702595329806725189918 (0x864E4AFC9A87F202ADB884D6B986911E)
Complete name : ./28f09a1408f14ec485c5ff5e5b954700.mkv
Format : Matroska
Format version : Version 4 / Version 2
File size : 2.04 GiB
Duration : 21 min 38 s
Overall bit rate mode : Variable
Overall bit rate : 13.5 Mb/s
Encoded date : UTC 2017-09-28 10:30:41
Writing application : mkvmerge v10.0.0 ('To Drown In You') 64bit
Writing library : libebml v1.3.4 + libmatroska v1.4.5

Video
ID : 1
Format : AVC
Format/Info : Advanced Video Codec
Format profile : High@L4
Format settings : CABAC / 4 Ref Frames
Format settings, CABAC : Yes
Format settings, RefFrames : 4 frames
Codec ID : V_MPEG4/ISO/AVC
Duration : 21 min 38 s
Bit rate mode : Variable
Bit rate : 12.9 Mb/s
Maximum bit rate : 15.0 Mb/s
Width : 1 920 pixels
Height : 1 080 pixels
Display aspect ratio : 16:9
Frame rate mode : Constant
Frame rate : 23.976 (24000/1001) FPS
Color space : YUV
Chroma subsampling : 4:2:0
Bit depth : 8 bits
Scan type : Progressive
Bits/(Pixel*Frame) : 0.259
Stream size : 1.94 GiB (95%)
Default : Yes
Forced : No
Color range : Limited
Color primaries : BT.709
Transfer characteristics : BT.709
Matrix coefficients : BT.709

Audio
ID : 2
Format : E-AC-3
Format/Info : Enhanced Audio Coding 3
Format settings, Endianness : Big
Codec ID : A_EAC3
Duration : 21 min 37 s
Bit rate mode : Constant
Bit rate : 640 kb/s
Channel(s) : 6 channels
Channel positions : Front: L C R, Side: L R, LFE
Sampling rate : 48.0 kHz
Frame rate : 187.500 FPS (256 SPF)
Compression mode : Lossy
Stream size : 99.0 MiB (5%)
Language : English
Service kind : Complete Main
Default : Yes
Forced : No

Text
ID : 3
Format : UTF-8
Codec ID : S_TEXT/UTF8
Codec ID/Info : UTF-8 Plain Text
Duration : 21 min 27 s
Bit rate : 120 b/s
Count of elements : 615
Stream size : 18.9 KiB (0%)
Language : English
Default : No
Forced : No





Modern Family S09E01


Modern Family S09E01


Modern Family S09E01


Modern Family S09E01


Modern Family S09E01

All episodes