NCIS - Unità anticrimine S15E17

Posted By: Tavaz
720p (HD) / WEB-DL IMDb
NCIS - Unità anticrimine S15E17

NCIS - Unità anticrimine S15E17
WEB-DL | MKV | 1280x720 | English | H264 @ 4098 kbps | AC-3 @ 384 kbps | 43 min 6 s | 1.35 GiB
Subtitles: English
Genre: Crime, Dramma

La serie segue le vicende della principale squadra di agenti speciali dell'agenzia federale Naval Criminal Investigative Service (NCIS), denominata «Major Case Response Team» (MCRT)[5], con sede al Washington Navy Yard di Washington. L'NCIS si occupa dei reati più gravi che vedono coinvolti membri o persone legate alla marina degli Stati Uniti o al corpo dei Marines. Il Major Case Response Team, in particolare, si occupa dei casi più difficili e delicati, quali ad esempio l'omicidio di uomini vicini al Presidente, morti di celebrità all'interno di basi della marina, minacce terroristiche e rapimenti.

5bbc54209eaa4166a1f9e47147df9353.mkv (1.4 GB)



General
Unique ID : 126946778229476612203622011126063269621 (0x5F810F663953D2766313A05E2E2386F5)
Complete name : ./5bbc54209eaa4166a1f9e47147df9353.mkv
Format : Matroska
Format version : Version 4 / Version 2
File size : 1.35 GiB
Duration : 43 min 6 s
Overall bit rate : 4 484 kb/s
Encoded date : UTC 2018-03-14 11:38:01
Writing application : mkvmerge v20.0.0 ('I Am The Sun') 64-bit
Writing library : libebml v1.3.5 + libmatroska v1.4.8

Video
ID : 1
Format : AVC
Format/Info : Advanced Video Codec
Format profile : High@L3.1
Format settings : 2 Ref Frames
Format settings, CABAC : No
Format settings, RefFrames : 2 frames
Codec ID : V_MPEG4/ISO/AVC
Duration : 43 min 6 s
Bit rate : 4 098 kb/s
Width : 1 280 pixels
Height : 720 pixels
Display aspect ratio : 16:9
Frame rate mode : Constant
Frame rate : 23.976 (24000/1001) FPS
Color space : YUV
Chroma subsampling : 4:2:0
Bit depth : 8 bits
Scan type : Progressive
Bits/(Pixel*Frame) : 0.185
Stream size : 1.23 GiB (91%)
Language : English
Default : Yes
Forced : No
Color range : Limited
Color primaries : BT.709
Transfer characteristics : BT.709
Matrix coefficients : BT.709

Audio
ID : 2
Format : AC-3
Format/Info : Audio Coding 3
Format settings, Endianness : Big
Codec ID : A_AC3
Duration : 43 min 6 s
Bit rate mode : Constant
Bit rate : 384 kb/s
Channel(s) : 6 channels
Channel positions : Front: L C R, Side: L R, LFE
Sampling rate : 48.0 kHz
Frame rate : 31.250 FPS (1536 SPF)
Bit depth : 16 bits
Compression mode : Lossy
Delay relative to video : -42 ms
Stream size : 118 MiB (9%)
Language : English
Service kind : Complete Main
Default : Yes
Forced : No

Text
ID : 3
Format : UTF-8
Codec ID : S_TEXT/UTF8
Codec ID/Info : UTF-8 Plain Text
Duration : 42 min 23 s
Bit rate : 140 b/s
Count of elements : 1015
Stream size : 43.6 KiB (0%)
Language : English
Default : Yes
Forced : No





NCIS - Unità anticrimine S15E17


NCIS - Unità anticrimine S15E17


NCIS - Unità anticrimine S15E17


NCIS - Unità anticrimine S15E17


NCIS - Unità anticrimine S15E17

All episodes