NCIS - Unità anticrimine S15E23

Posted By: Tavaz
1080p (FullHD) / WEB-DL IMDb
NCIS - Unità anticrimine S15E23

NCIS - Unità anticrimine S15E23
WEB-DL | MKV | 1920x1080 | English | H264 @ 5261 kbps | AC-3 @ 384 kbps | 43 min 5 s | 1.70 GiB
Subtitles: English
Genre: Crime, Dramma

La serie segue le vicende della principale squadra di agenti speciali dell'agenzia federale Naval Criminal Investigative Service (NCIS), denominata «Major Case Response Team» (MCRT)[5], con sede al Washington Navy Yard di Washington. L'NCIS si occupa dei reati più gravi che vedono coinvolti membri o persone legate alla marina degli Stati Uniti o al corpo dei Marines. Il Major Case Response Team, in particolare, si occupa dei casi più difficili e delicati, quali ad esempio l'omicidio di uomini vicini al Presidente, morti di celebrità all'interno di basi della marina, minacce terroristiche e rapimenti.

806f1eb5bc724766ad45bd5b8255b2ea.mkv (1.7 GB)



General
Unique ID : 272884304263619095422704077684741016162 (0xCD4B9AF4831739987329325AB47C8A62)
Complete name : ./806f1eb5bc724766ad45bd5b8255b2ea.mkv
Format : Matroska
Format version : Version 4 / Version 2
File size : 1.70 GiB
Duration : 43 min 5 s
Overall bit rate : 5 648 kb/s
Encoded date : UTC 2018-05-17 11:50:05
Writing application : mkvmerge v23.0.0 ('The Bride Said No') 64-bit
Writing library : libebml v1.3.6 + libmatroska v1.4.9

Video
ID : 1
Format : AVC
Format/Info : Advanced Video Codec
Format profile : High@L4
Format settings : CABAC / 4 Ref Frames
Format settings, CABAC : Yes
Format settings, RefFrames : 4 frames
Codec ID : V_MPEG4/ISO/AVC
Duration : 43 min 5 s
Bit rate : 5 262 kb/s
Width : 1 920 pixels
Height : 1 080 pixels
Display aspect ratio : 16:9
Frame rate mode : Constant
Frame rate : 23.976 (24000/1001) FPS
Color space : YUV
Chroma subsampling : 4:2:0
Bit depth : 8 bits
Scan type : Progressive
Bits/(Pixel*Frame) : 0.106
Stream size : 1.58 GiB (93%)
Language : English
Default : Yes
Forced : No
Color range : Limited
Color primaries : BT.709
Transfer characteristics : BT.709
Matrix coefficients : BT.709

Audio
ID : 2
Format : AC-3
Format/Info : Audio Coding 3
Format settings, Endianness : Big
Codec ID : A_AC3
Duration : 43 min 5 s
Bit rate mode : Constant
Bit rate : 384 kb/s
Channel(s) : 6 channels
Channel positions : Front: L C R, Side: L R, LFE
Sampling rate : 48.0 kHz
Frame rate : 31.250 FPS (1536 SPF)
Bit depth : 16 bits
Compression mode : Lossy
Delay relative to video : -42 ms
Stream size : 118 MiB (7%)
Language : English
Service kind : Complete Main
Default : Yes
Forced : No

Text
ID : 3
Format : UTF-8
Codec ID : S_TEXT/UTF8
Codec ID/Info : UTF-8 Plain Text
Duration : 42 min 38 s
Bit rate : 125 b/s
Count of elements : 1017
Stream size : 39.1 KiB (0%)
Language : English
Default : Yes
Forced : No





NCIS - Unità anticrimine S15E23


NCIS - Unità anticrimine S15E23


NCIS - Unità anticrimine S15E23


NCIS - Unità anticrimine S15E23


NCIS - Unità anticrimine S15E23

All episodes