New Girl S06E20

Posted By: Tavaz
1080p (FullHD) / WEB-DL IMDb
New Girl S06E20

New Girl S06E20
WEB-DL | MKV | 1920x1080 | English | H264 @ 5201 kbps | AC-3 @ 384 kbps | 21 min 43 s | 868 MiB
Subtitles: English
Genre: Comedy

Jessica Day is an offbeat and adorable girl in her late 20s who, after a bad breakup, moves in with three single guys. Goofy, positive, vulnerable and honest to a fault, Jess has faith in people, even when she shouldn't. Although she's dorky and awkward, she's comfortable in her own skin. More prone to friendships with women, she's not used to hanging with the boys—especially at home.

New.Girl.S06E20.Misery.1080p.WEB-DL.DD5.1.H264-CLZ-NL.mkv (868.1 MB)
New.Girl.S06E20.Misery.1080p.WEB-DL.DD5.1.H264-CLZ-NL.srt (42.8 KB)



General
Unique ID : 184855106524521866838522278655943104144 (0x8B11CC6AAEBD2E39B844DA48B4D9D690)
Complete name : ./New.Girl.S06E20.Misery.1080p.WEB-DL.DD5.1.H264-CLZ-NL.mkv
Format : Matroska
Format version : Version 4 / Version 2
File size : 868 MiB
Duration : 21 min 43 s
Overall bit rate : 5 588 kb/s
Encoded date : UTC 2017-03-22 17:49:01
Writing application : mkvmerge v9.8.0 ('Kuglblids') 64bit
Writing library : libebml v1.3.4 + libmatroska v1.4.5
Cover : Yes
Attachments : small_cover.jpg / cover.jpg / cover_land.jpg / small_cover_land.jpg

Video
ID : 2
Format : AVC
Format/Info : Advanced Video Codec
Format profile : High@L4
Format settings : CABAC / 4 Ref Frames
Format settings, CABAC : Yes
Format settings, RefFrames : 4 frames
Codec ID : V_MPEG4/ISO/AVC
Duration : 21 min 43 s
Bit rate : 5 201 kb/s
Width : 1 920 pixels
Height : 1 080 pixels
Display aspect ratio : 16:9
Frame rate mode : Constant
Frame rate : 23.976 (24000/1001) FPS
Color space : YUV
Chroma subsampling : 4:2:0
Bit depth : 8 bits
Scan type : Progressive
Bits/(Pixel*Frame) : 0.105
Stream size : 808 MiB (93%)
Language : English
Default : Yes
Forced : No
Color range : Limited
Color primaries : BT.709
Transfer characteristics : BT.709
Matrix coefficients : BT.709

Audio
ID : 3
Format : AC-3
Format/Info : Audio Coding 3
Format settings, Endianness : Big
Codec ID : A_AC3
Duration : 21 min 43 s
Bit rate mode : Constant
Bit rate : 384 kb/s
Channel(s) : 6 channels
Channel positions : Front: L C R, Side: L R, LFE
Sampling rate : 48.0 kHz
Frame rate : 31.250 FPS (1536 SPF)
Bit depth : 16 bits
Compression mode : Lossy
Delay relative to video : 16 ms
Stream size : 59.7 MiB (7%)
Language : English
Service kind : Complete Main
Default : Yes
Forced : No

Text
ID : 1
Format : UTF-8
Codec ID : S_TEXT/UTF8
Codec ID/Info : UTF-8 Plain Text
Duration : 21 min 37 s
Bit rate : 165 b/s
Count of elements : 581
Stream size : 26.3 KiB (0%)
Language : English
Default : Yes
Forced : No





New Girl S06E20


New Girl S06E20


New Girl S06E20


New Girl S06E20


New Girl S06E20

All episodes