Paris etc S01 E1-12

Posted By: Tavaz
720p (HD) / HDTV IMDb
Paris etc S01 E1-12

Paris etc S01 E1-12
HDTV | MKV | 1280x712 | French | H264 @ 2859 kbps | AC-3 @ 384 kbps | 32 min 7 s | 12 x 761 MiB
Genre: Comedy, Drama

Paris etc. une série TV de Maïwenn, Anne Berest avec Valeria Bruni Tedeschi, Anaïs Demoustier. Retrouvez toutes les news, les vidéos, les photos ainsi que tous les détails sur les saisons et les épisodes de la série Paris etc.

Paris.etc.S01E06.FRENCH.720p.HDTV.x264-SH0W.mkv (502.9 MB)
paris.etc.s01e07.french.720p.hdtv.x264-sh0w.sample.mkv (6.0 MB)
Paris.etc.S01E07.FRENCH.720p.HDTV.x264-SH0W.mkv (570.8 MB)
Paris.etc.S01E09.FRENCH.720p.HDTV.x264-SH0W.mkv (591.0 MB)
paris.etc.s01e06.french.720p.hdtv.x264-sh0w.sample.mkv (19.7 MB)
paris.etc.s01e05.french.720p.hdtv.x264-sh0w.sample.mkv (16.2 MB)
paris.etc.s01e08.french.720p.hdtv.x264-sh0w.sample.mkv (34.3 MB)
paris.etc.s01e02.french.720p.hdtv.x264-sh0w.sample.mkv (22.4 MB)
Paris.etc.S01E11.FRENCH.720p.HDTV.x264-SH0W.mkv (581.4 MB)
paris.etc.s01e12.final.french.720p.hdtv.x264-sh0w.sample.mkv (16.2 MB)
paris.etc.s01e10.french.720p.hdtv.x264-sh0w.sample.mkv (23.1 MB)
Paris.etc.S01E02.FRENCH.720p.HDTV.x264-SH0W.mkv (618.4 MB)
paris.etc.s01e09.french.720p.hdtv.x264-sh0w.sample.mkv (16.1 MB)
Paris.etc.S01E08.FRENCH.720p.HDTV.x264-SH0W.mkv (608.4 MB)
Paris.etc.S01E12.FiNAL.FRENCH.720p.HDTV.x264-SH0W.mkv (601.7 MB)
Paris.etc.S01E04.FRENCH.720p.HDTV.x264-SH0W.mkv (668.4 MB)
Paris.etc.S01E05.FRENCH.720p.HDTV.x264-SH0W.mkv (559.8 MB)
paris.etc.s01e04.french.720p.hdtv.x264-sh0w.sample.mkv (14.4 MB)
Paris.etc.S01E01.FRENCH.720p.HDTV.x264-SH0W.mkv (760.5 MB)
paris.etc.s01e11.french.720p.hdtv.x264-sh0w.sample.mkv (17.6 MB)
Paris.etc.S01E10.FRENCH.720p.HDTV.x264-SH0W.mkv (606.3 MB)
Paris.etc.S01E03.FRENCH.720p.HDTV.x264-SH0W.mkv (631.3 MB)



General
Complete name : ./Paris.etc.S01E01.FRENCH.720p.HDTV.x264-SH0W.mkv
Format : Matroska
Format version : Version 2
File size : 761 MiB
Duration : 32 min 7 s
Overall bit rate : 3 309 kb/s
Writing application : x264.exe
Writing library : mkv2rls x264-tv version built on 2016.10.12

Video
ID : 1
Format : AVC
Format/Info : Advanced Video Codec
Format profile : High@L4.1
Format settings : CABAC / 5 Ref Frames
Format settings, CABAC : Yes
Format settings, RefFrames : 5 frames
Codec ID : V_MPEG4/ISO/AVC
Duration : 32 min 7 s
Bit rate : 2 860 kb/s
Width : 1 280 pixels
Height : 712 pixels
Display aspect ratio : 16:9
Frame rate mode : Constant
Frame rate : 25.000 FPS
Color space : YUV
Chroma subsampling : 4:2:0
Bit depth : 8 bits
Scan type : Progressive
Bits/(Pixel*Frame) : 0.126
Stream size : 657 MiB (86%)
Writing library : x264 core 152 r2851 ba24899
Encoding settings : cabac=1 / ref=5 / deblock=1:0:0 / analyse=0x3:0x113 / me=hex / subme=8 / psy=1 / psy_rd=1.00:0.00 / mixed_ref=1 / me_range=16 / chroma_me=1 / trellis=2 / 8x8dct=1 / cqm=0 / deadzone=21,11 / fast_pskip=1 / chroma_qp_offset=-2 / threads=22 / lookahead_threads=3 / sliced_threads=0 / nr=0 / decimate=1 / interlaced=0 / bluray_compat=0 / constrained_intra=0 / bframes=3 / b_pyramid=2 / b_adapt=1 / b_bias=0 / direct=3 / weightb=1 / open_gop=0 / weightp=2 / keyint=250 / keyint_min=25 / scenecut=40 / intra_refresh=0 / rc_lookahead=50 / rc=crf / mbtree=1 / crf=18.0 / qcomp=0.60 / qpmin=0 / qpmax=69 / qpstep=4 / ip_ratio=1.40 / aq=1:1.00
Language : English
Default : Yes
Forced : No
Color range : Limited
Matrix coefficients : BT.709

Audio
ID : 2
Format : AC-3
Format/Info : Audio Coding 3
Format settings, Endianness : Big
Codec ID : A_AC3
Duration : 32 min 7 s
Bit rate mode : Constant
Bit rate : 384 kb/s
Channel(s) : 6 channels
Channel positions : Front: L C R, Side: L R, LFE
Sampling rate : 48.0 kHz
Frame rate : 31.250 FPS (1536 SPF)
Bit depth : 16 bits
Compression mode : Lossy
Stream size : 88.2 MiB (12%)
Language : English
Service kind : Complete Main
Default : Yes
Forced : No





Paris etc S01 E1-12


Paris etc S01 E1-12


Paris etc S01 E1-12


Paris etc S01 E1-12


Paris etc S01 E1-12

All episodes