Philip K. Dick's Electric Dreams S01E02

Posted By: Tavaz
720p (HD) / WEB-DL IMDb
Philip K. Dick's Electric Dreams S01E02

Philip K. Dick's Electric Dreams S01E02
WEB-DL | MKV | 1280x720 | English | H264 @ 2523 kbps | E-AC-3 @ 640 kbps | 50 min 21 s | 1.11 GiB
Subtitles: English
Genre: Drama

A diverse anthology of ambitious, moving tales inspired by Philip K Dick's short stories.

61caf609af704adc9111101cd73e1f6a.mkv (1.1 GB)



General
Unique ID : 57781161184242274734412671476832756249 (0x2B783F31DD46C033EA7E9C34FB856219)
Complete name : ./61caf609af704adc9111101cd73e1f6a.mkv
Format : Matroska
Format version : Version 4 / Version 2
File size : 1.11 GiB
Duration : 50 min 21 s
Overall bit rate mode : Variable
Overall bit rate : 3 165 kb/s
Encoded date : UTC 2018-01-12 13:02:36
Writing application : mkvmerge v19.0.0 ('Brave Captain') 64-bit
Writing library : libebml v1.3.5 + libmatroska v1.4.8

Video
ID : 1
Format : AVC
Format/Info : Advanced Video Codec
Format profile : High@L3.1
Format settings : CABAC / 5 Ref Frames
Format settings, CABAC : Yes
Format settings, RefFrames : 5 frames
Codec ID : V_MPEG4/ISO/AVC
Duration : 50 min 21 s
Bit rate mode : Variable
Bit rate : 2 523 kb/s
Maximum bit rate : 4 500 kb/s
Width : 1 280 pixels
Height : 720 pixels
Display aspect ratio : 16:9
Frame rate mode : Constant
Frame rate : 23.976 (24000/1001) FPS
Color space : YUV
Chroma subsampling : 4:2:0
Bit depth : 8 bits
Scan type : Progressive
Bits/(Pixel*Frame) : 0.114
Stream size : 909 MiB (80%)
Default : Yes
Forced : No
Color range : Limited
Color primaries : BT.709
Transfer characteristics : BT.709
Matrix coefficients : BT.709

Audio
ID : 2
Format : E-AC-3
Format/Info : Enhanced Audio Coding 3
Format settings, Endianness : Big
Codec ID : A_EAC3
Duration : 50 min 21 s
Bit rate mode : Constant
Bit rate : 640 kb/s
Channel(s) : 6 channels
Channel positions : Front: L C R, Side: L R, LFE
Sampling rate : 48.0 kHz
Frame rate : 187.500 FPS (256 SPF)
Compression mode : Lossy
Stream size : 230 MiB (20%)
Language : English
Service kind : Complete Main
Default : Yes
Forced : No

Text
ID : 3
Format : UTF-8
Codec ID : S_TEXT/UTF8
Codec ID/Info : UTF-8 Plain Text
Duration : 48 min 41 s
Bit rate : 60 b/s
Count of elements : 805
Stream size : 21.6 KiB (0%)
Language : English
Default : No
Forced : No

Menu
00:00:00.000 : en:Amazon Original
00:00:08.000 : en:Title Sequence
00:00:55.000 : en:add
00:00:56.000 : en:Emily listen to the news while driving
00:02:46.000 : en:Emily searches for her target
00:04:34.000 : en:Emily hacks into the Autofac system
00:07:39.000 : en:Survivors discuss how to terminate Autofac
00:10:53.000 : en:Emily and Avishai spend some time together
00:15:39.000 : en:Autofac sends a messenger for the survivors
00:19:30.000 : en:Emily tries to reprogram the Autofac robot
00:22:29.000 : en:Emily has a complex code to figure out
00:27:37.000 : en:Survivors voyage to Autofac
00:31:48.000 : en:Emily, Conrad and Perine break into the factory
00:34:25.000 : en:Emily and Conrad separate
00:38:34.000 : en:Emily enters the robots' room
00:40:29.000 : en:An unexpected anomaly
00:48:03.000 : en:Back to Avishai
00:48:50.000 : en:End Credits





Philip K. Dick's Electric Dreams S01E02


Philip K. Dick's Electric Dreams S01E02


Philip K. Dick's Electric Dreams S01E02


Philip K. Dick's Electric Dreams S01E02


Philip K. Dick's Electric Dreams S01E02

All episodes