QI S15E11

Posted By: Tavaz
SD / WEB-DL IMDb
QI S15E11

QI S15E11
WEB-DL | MKV | 832x468 | English | H264 @ 1403 kbps | AAC @ 93 kbps | 29 min 30 s | 316 MiB
Subtitles: English
Genre: Comedy

QI is a British comedy panel game television quiz show created and co-produced by John Lloyd, hosted by Stephen Fry, and featuring permanent panellist Alan Davies. Most of the questions are extremely obscure, making it unlikely that the correct answer will be given. To compensate, points are also awarded for interesting answers, regardless of whether they are right or even relate to the original question. Points are also deducted from a panellist who gives answers which are wrong, pathetically obvious, or obviously a joke. The show makes use of a loud siren and flashing lights, as a form of humiliation.

3f57e533a412432985a7d391142f7015.mkv (316.1 MB)



General
Unique ID : 304577039966513268323474715329343978917 (0xE523677752006FE12FD6D821C2A6FDA5)
Complete name : ./3f57e533a412432985a7d391142f7015.mkv
Format : Matroska
Format version : Version 4 / Version 2
File size : 316 MiB
Duration : 29 min 30 s
Overall bit rate : 1 498 kb/s
Encoded date : UTC 2018-01-13 02:34:27
Writing application : mkvmerge v19.0.0 ('Brave Captain') 64-bit
Writing library : libebml v1.3.5 + libmatroska v1.4.8

Video
ID : 2
Format : AVC
Format/Info : Advanced Video Codec
Format profile : Main@L3.1
Format settings : CABAC / 2 Ref Frames
Format settings, CABAC : Yes
Format settings, RefFrames : 2 frames
Codec ID : V_MPEG4/ISO/AVC
Duration : 29 min 30 s
Bit rate mode : Constant
Bit rate : 1 404 kb/s
Width : 832 pixels
Height : 468 pixels
Display aspect ratio : 16:9
Frame rate mode : Constant
Frame rate : 25.000 FPS
Color space : YUV
Chroma subsampling : 4:2:0
Bit depth : 8 bits
Scan type : Progressive
Bits/(Pixel*Frame) : 0.144
Stream size : 296 MiB (94%)
Language : English
Default : Yes
Forced : No

Audio
ID : 3
Format : AAC
Format/Info : Advanced Audio Codec
Format profile : LC
Codec ID : A_AAC-2
Duration : 29 min 30 s
Bit rate : 93.4 kb/s
Channel(s) : 2 channels
Channel positions : Front: L R
Sampling rate : 48.0 kHz
Frame rate : 46.875 FPS (1024 SPF)
Compression mode : Lossy
Delay relative to video : -40 ms
Stream size : 19.7 MiB (6%)
Language : English
Default : Yes
Forced : No

Text
ID : 1
Format : UTF-8
Codec ID : S_TEXT/UTF8
Codec ID/Info : UTF-8 Plain Text
Duration : 28 min 36 s
Bit rate : 268 b/s
Count of elements : 593
Stream size : 56.3 KiB (0%)
Language : English
Default : Yes
Forced : No





QI S15E11


QI S15E11


QI S15E11


QI S15E11


QI S15E11

All episodes