Rotten S01E01

Posted By: Tavaz
720p (HD) / WEBRip IMDb
Rotten S01E01

Rotten S01E01
WEBRip | MKV | 1280x674 | French | H264 @ 4820 kbps | AC-3 @ 384 kbps | 56 min 5 s | 2.04 GiB
Subtitles: French

This docuseries travels deep into the heart of the food supply chain to reveal unsavory truths and expose hidden forces that shape what we eat.

rotten.s01e06.final.doc.french.720p.webrip.x264-brink.mkv (2.0 GB)
sample-rotten.s01e04.doc.french.720p.webrip.x264-brink.mkv (51.6 MB)
rotten.s01e04.doc.french.720p.webrip.x264-brink.mkv (1.4 GB)
rotten.s01e03.doc.french.720p.webrip.x264-brink.mkv (1.8 GB)
rotten.s01e02.doc.french.720p.webrip.x264-brink.mkv (1.2 GB)
sample-rotten.s01e06.final.doc.french.720p.webrip.x264-brink.mkv (49.1 MB)
rotten.s01e05.doc.french.720p.webrip.x264-brink.mkv (1.7 GB)
rotten.s01e01.doc.french.720p.webrip.x264-brink.mkv (1.8 GB)
sample-rotten.s01e05.doc.french.720p.webrip.x264-brink.mkv (33.4 MB)



General
Unique ID : 7120547248161971522462757190524026661 (0x55B5E1590CF6529B32E312702393F25)
Complete name : ./rotten.s01e06.final.doc.french.720p.webrip.x264-brink.mkv
Format : Matroska
Format version : Version 4 / Version 2
File size : 2.04 GiB
Duration : 56 min 5 s
Overall bit rate : 5 206 kb/s
Encoded date : UTC 2018-01-05 20:24:46
Writing application : mkvmerge v19.0.0 ('Brave Captain') 64-bit
Writing library : libebml v1.3.5 + libmatroska v1.4.8

Video
ID : 1
Format : AVC
Format/Info : Advanced Video Codec
Format profile : High@L4.1
Format settings : CABAC / 8 Ref Frames
Format settings, CABAC : Yes
Format settings, RefFrames : 8 frames
Codec ID : V_MPEG4/ISO/AVC
Duration : 56 min 5 s
Bit rate : 4 820 kb/s
Width : 1 280 pixels
Height : 674 pixels
Display aspect ratio : 1.899
Frame rate mode : Constant
Frame rate : 23.976 (24000/1001) FPS
Color space : YUV
Chroma subsampling : 4:2:0
Bit depth : 8 bits
Scan type : Progressive
Bits/(Pixel*Frame) : 0.233
Stream size : 1.89 GiB (93%)
Writing library : x264 core 155 r2893 b00bcaf
Encoding settings : cabac=1 / ref=8 / deblock=1:-3:-3 / analyse=0x3:0x133 / me=umh / subme=11 / psy=1 / psy_rd=1.05:0.15 / mixed_ref=1 / me_range=48 / chroma_me=1 / trellis=2 / 8x8dct=1 / cqm=0 / deadzone=6,6 / fast_pskip=0 / chroma_qp_offset=-3 / threads=12 / lookahead_threads=3 / sliced_threads=0 / nr=0 / decimate=0 / interlaced=0 / bluray_compat=0 / constrained_intra=0 / bframes=10 / b_pyramid=2 / b_adapt=2 / b_bias=0 / direct=3 / weightb=1 / open_gop=0 / weightp=2 / keyint=250 / keyint_min=23 / scenecut=40 / intra_refresh=0 / rc_lookahead=60 / rc=crf / mbtree=1 / crf=18.0 / qcomp=0.70 / qpmin=0 / qpmax=69 / qpstep=4 / ip_ratio=1.10 / aq=3:0.70
Default : Yes
Forced : No

Audio
ID : 2
Format : AC-3
Format/Info : Audio Coding 3
Format settings, Endianness : Big
Codec ID : A_AC3
Duration : 56 min 5 s
Bit rate mode : Constant
Bit rate : 384 kb/s
Channel(s) : 6 channels
Channel positions : Front: L C R, Side: L R, LFE
Sampling rate : 48.0 kHz
Frame rate : 31.250 FPS (1536 SPF)
Bit depth : 16 bits
Compression mode : Lossy
Stream size : 154 MiB (7%)
Title : French
Language : French
Service kind : Complete Main
Default : Yes
Forced : No

Text #1
ID : 3
Format : UTF-8
Codec ID : S_TEXT/UTF8
Codec ID/Info : UTF-8 Plain Text
Duration : 54 min 19 s
Bit rate : 5 b/s
Count of elements : 67
Stream size : 2.34 KiB (0%)
Title : French (Forced)
Language : French
Default : Yes
Forced : Yes

Text #2
ID : 4
Format : UTF-8
Codec ID : S_TEXT/UTF8
Codec ID/Info : UTF-8 Plain Text
Duration : 54 min 23 s
Bit rate : 87 b/s
Count of elements : 798
Stream size : 34.7 KiB (0%)
Title : French
Language : French
Default : No
Forced : No





Rotten S01E01


Rotten S01E01


Rotten S01E01


Rotten S01E01


Rotten S01E01

All episodes