SIX S02E07

Posted By: Tavaz
1080p (FullHD) / WEBRip IMDb
SIX S02E07

SIX S02E07
WEBRip | MKV | 1920x1080 | English | H264 @ 13723 kbps | E-AC-3 @ 224 kbps | 44 min 25 s | 4.33 GiB
Subtitles: English
Genre: Crime, Drama

Action drama series inspired by the real missions of Navy SEAL Team Six.

SIX.S02E07.FUBAR.1080p.AMZN.WEB-DL.DDP2.0.H.264-KiNGS.mkv (4.3 GB)



General
Unique ID : 299443949979967605205641532346424042098 (0xE146CE971B3FC867475CEEA4EEBB2272)
Complete name : ./SIX.S02E07.FUBAR.1080p.AMZN.WEB-DL.DDP2.0.H.264-KiNGS.mkv
Format : Matroska
Format version : Version 4 / Version 2
File size : 4.33 GiB
Duration : 44 min 25 s
Overall bit rate : 13.9 Mb/s
Encoded date : UTC 2018-07-12 11:48:32
Writing application : mkvmerge v15.0.0 ('Duel with the Devil') 64-bit
Writing library : libebml v1.3.5 + libmatroska v1.4.5

Video
ID : 1
Format : AVC
Format/Info : Advanced Video Codec
Format profile : High@L4
Format settings : CABAC / 4 Ref Frames
Format settings, CABAC : Yes
Format settings, RefFrames : 4 frames
Codec ID : V_MPEG4/ISO/AVC
Duration : 44 min 25 s
Bit rate : 13.7 Mb/s
Width : 1 920 pixels
Height : 1 080 pixels
Display aspect ratio : 16:9
Frame rate mode : Constant
Frame rate : 23.976 (24000/1001) FPS
Color space : YUV
Chroma subsampling : 4:2:0
Bit depth : 8 bits
Scan type : Progressive
Bits/(Pixel*Frame) : 0.276
Stream size : 4.26 GiB (98%)
Default : Yes
Forced : No
Color range : Limited
Color primaries : BT.709
Transfer characteristics : BT.709
Matrix coefficients : BT.709

Audio
ID : 2
Format : E-AC-3
Format/Info : Enhanced Audio Coding 3
Format settings, Endianness : Big
Codec ID : A_EAC3
Duration : 44 min 25 s
Bit rate mode : Constant
Bit rate : 224 kb/s
Channel(s) : 2 channels
Channel positions : Front: L R
Sampling rate : 48.0 kHz
Frame rate : 187.500 FPS (256 SPF)
Compression mode : Lossy
Stream size : 71.2 MiB (2%)
Language : English
Service kind : Complete Main
Default : Yes
Forced : No

Text #1
ID : 3
Format : UTF-8
Codec ID : S_TEXT/UTF8
Codec ID/Info : UTF-8 Plain Text
Duration : 44 min 10 s
Bit rate : 59 b/s
Count of elements : 694
Stream size : 19.2 KiB (0%)
Language : English
Default : No
Forced : No

Text #2
ID : 4
Format : UTF-8
Codec ID : S_TEXT/UTF8
Codec ID/Info : UTF-8 Plain Text
Duration : 44 min 10 s
Bit rate : 69 b/s
Count of elements : 797
Stream size : 22.5 KiB (0%)
Title : SDH
Language : English
Default : No
Forced : No





SIX S02E07


SIX S02E07


SIX S02E07


SIX S02E07


SIX S02E07

All episodes